<?xml version="1.0" standalone="no"?>
<!DOCTYPE svg PUBLIC "-//W3C//DTD SVG 1.1//EN" "http://www.w3.org/Graphics/SVG/1.1/DTD/svg11.dtd">
<svg xmlns="http://www.w3.org/2000/svg">
<defs >
<font id="EncodeSans" horiz-adv-x="1118" ><font-face
    font-family="Encode Sans"
    units-per-em="2000"
    panose-1="0 0 5 0 0 0 0 0 0 0"
    ascent="2060"
    descent="-440"
    alphabetic="0" />
<glyph unicode=" " glyph-name="space" horiz-adv-x="489" />
<glyph unicode="!" glyph-name="exclam" horiz-adv-x="501" d="M200 372L165 918V1480H336V918L302 372H200ZM199 -13T167 16T135 95Q135 144 166 174T250 204Q302 204 334 174T366 95Q366 46 334 17T250 -13Q199 -13 167 16Z" />
<glyph unicode="&quot;" glyph-name="quotedbl" horiz-adv-x="756" d="M161 915L126 1616H293L258 915H161ZM498 915L463 1616H630L595 915H498Z" />
<glyph unicode="#" glyph-name="numbersign" horiz-adv-x="1157" d="M1057 892H849L817 588H1057V457H804L756 0H625L673 457H426L378 0H246L294 457H100V588H307L339 892H100V1023H352L400 1480H532L484 1023H731L779 1480H910L862 1023H1057V892ZM686 588L718
892H471L439 588H686Z" />
<glyph unicode="$" glyph-name="dollar" horiz-adv-x="1063" d="M989 233T890 128T607 -8V-240H457V-19Q369 -19 275 -4T97 40V180Q187 150 281 135T460 120Q825 120 825 391Q825 466 796 516T703 601T530 664L450 685Q260 734 167 831T74 1088Q74 1253 171 1356T457
1489V1720H607V1499Q689 1499 772 1488T924 1455V1315Q777 1360 610 1360Q420 1360 329 1293T238 1098Q238 1025 264 975T350 891T511 829L591 809Q797 757 893 659T989 401Q989 233 890 128Z" />
<glyph unicode="%" glyph-name="percent" horiz-adv-x="1845" d="M286 575T195 687T104 1037Q104 1274 194 1386T444 1499Q603 1499 693 1387T784 1037Q784 800 693 688T444 575Q286 575 195 687ZM526 0L1178 1480H1319L667 0H526ZM542 688T596 768T650 1035Q650
1223 596 1304T444 1385Q346 1385 293 1305T239 1038Q239 851 292 770T444 688Q542 688 596 768ZM1242 -18T1152 94T1061 444Q1061 681 1151 793T1401 906Q1560 906 1650 794T1741 444Q1741 207 1650 95T1401 -18Q1242 -18 1152 94ZM1499 95T1552 175T1606 442Q1606
630 1552 711T1401 792Q1303 792 1249 712T1195 445Q1195 258 1249 177T1401 95Q1499 95 1552 175Z" />
<glyph unicode="&amp;" glyph-name="ampersand" horiz-adv-x="1497" d="M1416 -20L1157 176Q1084 80 963 31T678 -18Q502 -18 381 34T199 181T138 403Q138 536 203 638T388 799Q336 865 314 931T292 1076Q292 1280 424 1389T819 1499Q948 1499 1063 1471V1331Q956
1360 826 1360Q634 1360 545 1288T456 1074Q456 1007 477 953T550 841T700 705L1111 393Q1125 455 1125 528Q1125 592 1114 662T1082 798H1221Q1260 672 1260 529Q1260 406 1226 306L1497 100L1416 -20ZM948 108T1052 256L619 584Q522 659 468 711Q301 611 301
420Q301 275 399 192T693 108Q948 108 1052 256Z" />
<glyph unicode="&apos;" glyph-name="quotesingle" horiz-adv-x="419" d="M161 915L126 1616H293L258 915H161Z" />
<glyph unicode="(" glyph-name="parenleft" horiz-adv-x="659" d="M125 -20T125 588Q125 1196 466 1616H638Q458 1390 375 1135T291 588Q291 297 374 42T638 -440H466Q125 -20 125 588Z" />
<glyph unicode=")" glyph-name="parenright" horiz-adv-x="659" d="M201 -214T284 41T368 588Q368 880 285 1135T21 1616H193Q534 1198 534 588Q534 -22 193 -440H21Q201 -214 284 41Z" />
<glyph unicode="*" glyph-name="asterisk" horiz-adv-x="919" d="M519 1182L654 1035L756 896L660 826L558 965L459 1142L361 965L259 826L163 896L265 1035L399 1182L205 1222L30 1278L67 1390L240 1334L424 1250L400 1450V1616H519V1450L495 1250L678 1334L852
1390L889 1278L714 1222L519 1182Z" />
<glyph unicode="+" glyph-name="plus" horiz-adv-x="1075" d="M469 357V695H149V825H469V1163H606V825H926V695H606V357H469Z" />
<glyph unicode="," glyph-name="comma" horiz-adv-x="461" d="M284 210T314 174T345 64Q345 -35 318 -133T245 -316H150Q184 -226 202 -154T224 -13Q175 -11 145 19T115 99Q115 150 145 180T227 210Q284 210 314 174Z" />
<glyph unicode="-" glyph-name="hyphen" horiz-adv-x="837" d="M149 495V630H689V495H149Z" />
<glyph unicode="." glyph-name="period" horiz-adv-x="461" d="M179 -13T147 17T115 98Q115 149 146 179T230 210Q282 210 314 179T346 98Q346 48 314 18T230 -13Q179 -13 147 17Z" />
<glyph unicode="/" glyph-name="slash" horiz-adv-x="616" d="M0 -240L457 1616H616L159 -240H0Z" />
<glyph unicode="0" glyph-name="zero" horiz-adv-x="1249" d="M380 -19T248 162T115 740Q115 1138 246 1318T625 1499Q872 1499 1003 1319T1134 740Q1134 343 1002 162T625 -19Q380 -19 248 162ZM736 121T812 178T929 371T971 737Q971 970 930 1107T812 1301T625
1359Q513 1359 437 1302T320 1109T278 743Q278 510 319 373T437 179T625 121Q736 121 812 178Z" />
<glyph unicode="1" glyph-name="one" horiz-adv-x="730" d="M448 1485H551V0H389V1281L24 1020V1180L448 1485Z" />
<glyph unicode="2" glyph-name="two" horiz-adv-x="987" d="M923 140V0H60V90L483 652Q591 794 636 895T681 1091Q681 1232 603 1296T364 1360Q191 1360 43 1302V1442Q108 1468 197 1483T377 1499Q843 1499 843 1105Q843 1024 822 948T752 786T618 589L277 140H923Z" />
<glyph unicode="3" glyph-name="three" horiz-adv-x="1012" d="M777 738T859 644T941 400Q941 200 805 91T408 -19Q220 -19 51 38V170Q137 142 228 128T404 113Q593 113 688 187T784 407Q784 545 693 619T414 693H237V826H334Q531 826 632 899T734 1112Q734 1237
652 1302T411 1367Q242 1367 87 1312V1444Q156 1470 245 1484T424 1499Q651 1499 771 1401T892 1123Q892 994 821 902T620 769Q777 738 859 644Z" />
<glyph unicode="4" glyph-name="four" horiz-adv-x="1181" d="M1140 487V355H931V0H781V355H48V445L623 1480H785L235 487H781L802 980H931V487H1140Z" />
<glyph unicode="5" glyph-name="five" horiz-adv-x="1022" d="M583 841T713 790T905 648T966 419Q966 205 831 93T435 -19Q342 -19 251 -4T78 39V172Q161 144 253 129T432 114Q622 114 715 189T809 415Q809 514 763 577T609 676T318 723L133 734L183 1480H905V1347H328L295
858L374 853Q583 841 713 790Z" />
<glyph unicode="6" glyph-name="six" horiz-adv-x="1151" d="M771 851T874 804T1034 660T1091 420Q1091 279 1034 181T876 32T641 -19Q126 -19 126 692Q126 1499 753 1499Q914 1499 1023 1455V1320Q966 1343 897 1354T758 1365Q521 1365 404 1216T286 741Q351
793 443 822T634 851Q771 851 874 804ZM777 110T858 185T939 414Q939 570 852 646T608 723Q522 723 436 695T287 610Q296 338 387 224T643 110Q777 110 858 185Z" />
<glyph unicode="7" glyph-name="seven" horiz-adv-x="939" d="M12 1480H881V1390L338 0H169L701 1340H12V1480Z" />
<glyph unicode="8" glyph-name="eight" horiz-adv-x="1249" d="M1009 692T1079 603T1149 381Q1149 261 1089 171T913 31T633 -19Q459 -19 340 27T160 161T99 371Q99 504 173 604T382 759Q258 820 203 906T147 1113Q147 1230 203 1317T368 1452T628 1499Q775 1499
881 1454T1044 1325T1101 1125Q1101 1001 1038 907T848 753Q1009 692 1079 603ZM305 1036T339 980T454 882T682 804L715 795Q841 853 898 928T955 1113Q955 1240 870 1307T626 1374Q469 1374 387 1306T305 1118Q305 1036 339 980ZM808 106T900 175T993 372Q993
454 958 509T842 604T618 678Q554 694 505 709Q384 665 320 581T255 386Q255 249 351 178T634 106Q808 106 900 175Z" />
<glyph unicode="9" glyph-name="nine" horiz-adv-x="1151" d="M1025 1499T1025 788Q1025 -19 398 -19Q237 -19 128 25V160Q185 137 254 126T393 115Q630 115 747 264T865 739Q800 687 708 658T517 629Q380 629 277 676T117 820T60 1060Q60 1201 117 1299T275 1448T510
1499Q1025 1499 1025 788ZM212 910T299 834T543 757Q629 757 715 785T864 870Q855 1142 764 1256T508 1370Q374 1370 293 1295T212 1066Q212 910 299 834Z" />
<glyph unicode=":" glyph-name="colon" horiz-adv-x="461" d="M179 -13T147 17T115 98Q115 149 146 179T230 210Q282 210 314 179T346 98Q346 48 314 18T230 -13Q179 -13 147 17ZM179 875T147 905T115 986Q115 1037 146 1067T230 1098Q282 1098 314 1067T346 986Q346
936 314 906T230 875Q179 875 147 905Z" />
<glyph unicode=";" glyph-name="semicolon" horiz-adv-x="461" d="M284 210T314 174T345 64Q345 -35 318 -133T245 -316H150Q184 -226 202 -154T224 -13Q175 -11 145 19T115 99Q115 150 145 180T227 210Q284 210 314 174ZM179 875T147 905T115 986Q115 1037 146
1067T230 1098Q282 1098 314 1067T346 986Q346 936 314 906T230 875Q179 875 147 905Z" />
<glyph unicode="&lt;" glyph-name="less" horiz-adv-x="1075" d="M926 1161V1025L289 761L926 495V359L149 688V832L926 1161Z" />
<glyph unicode="=" glyph-name="equal" horiz-adv-x="1075" d="M149 892V1022H926V892H149ZM149 498V628H926V498H149Z" />
<glyph unicode="&gt;" glyph-name="greater" horiz-adv-x="1075" d="M149 1161L926 832V688L149 359V495L786 761L149 1025V1161Z" />
<glyph unicode="?" glyph-name="question" horiz-adv-x="903" d="M327 767Q463 809 541 857T652 967T686 1112Q686 1236 604 1300T362 1365Q194 1365 39 1310V1444Q109 1470 198 1484T377 1499Q604 1499 724 1401T844 1122Q844 1015 807 936T688 795T471 683L456
361H354L327 767ZM354 -13T322 16T290 95Q290 144 321 174T406 204Q458 204 489 174T521 95Q521 47 490 17T406 -13Q354 -13 322 16Z" />
<glyph unicode="@" glyph-name="at" horiz-adv-x="1919" d="M1380 1498T1596 1267T1813 570Q1813 366 1767 235T1641 43T1455 -18Q1363 -18 1304 20T1219 128H1207Q1158 57 1074 20T891 -18Q790 -18 716 17T602 119T562 278Q562 421 655 499T948 598L1204 626V717Q1204
812 1174 866T1084 943T929 965Q863 965 787 953T639 914V1046Q706 1070 789 1083T950 1097Q1089 1097 1179 1060T1315 939T1361 712V257Q1361 174 1391 137T1483 100Q1574 100 1631 208T1688 561Q1688 848 1607 1029T1366 1295T966 1380Q725 1380 565 1293T322
1016T240 523Q240 213 324 23T577 -254T1007 -342Q1108 -342 1203 -328T1403 -285V-405Q1209 -460 1007 -460Q561 -459 333 -221T105 520Q105 1018 326 1258T966 1498Q1380 1498 1596 1267ZM1007 107T1079 139T1204 240V520L959 493Q837 479 781 431T724 294Q724
202 777 155T931 107Q1007 107 1079 139Z" />
<glyph unicode="A" glyph-name="A" horiz-adv-x="1348" d="M1154 0L985 479H360L191 0H28L559 1480H788L1319 0H1154ZM408 616H936L672 1362L408 616Z" />
<glyph unicode="B" glyph-name="B" horiz-adv-x="1259" d="M1034 737T1110 643T1187 403Q1187 264 1121 173T911 34T535 -13Q358 -13 169 11V1455Q369 1496 576 1496Q872 1496 1008 1400T1144 1101Q1144 975 1080 886T883 764Q1034 737 1110 643ZM441 1366T328
1345V825H619Q815 825 902 891T989 1095Q989 1193 949 1252T822 1338T591 1366Q441 1366 328 1345ZM741 117T842 148T988 243T1032 408Q1032 555 939 624T647 693H328V130Q431 117 568 117Q741 117 842 148Z" />
<glyph unicode="C" glyph-name="C" horiz-adv-x="1151" d="M453 -19T279 159T105 737Q105 1128 282 1313T791 1499Q953 1499 1111 1456V1314Q958 1358 797 1358Q624 1358 510 1297T336 1100T276 741Q276 512 336 376T508 181T787 122Q869 122 946 135T1111 178V36Q955
-19 775 -19Q453 -19 279 159Z" />
<glyph unicode="D" glyph-name="D" horiz-adv-x="1400" d="M354 -12T169 9V1456Q261 1474 362 1484T556 1495Q924 1495 1109 1309T1294 740Q1294 353 1102 171T520 -12Q354 -12 169 9ZM746 127T873 190T1063 388T1127 740Q1127 1060 988 1208T561 1356Q456 1356
331 1337V140Q431 127 552 127Q746 127 873 190Z" />
<glyph unicode="E" glyph-name="E" horiz-adv-x="1166" d="M330 138H1094V0H169V1480H1084V1342H330V828H987V691H330V138Z" />
<glyph unicode="F" glyph-name="F" horiz-adv-x="1125" d="M1077 1341H331V817H979V677H331V0H169V1480H1077V1341Z" />
<glyph unicode="G" glyph-name="G" horiz-adv-x="1347" d="M1196 720V16Q1103 0 1025 -6T864 -13Q484 -13 295 169T105 738Q105 1128 295 1313T830 1499Q995 1499 1162 1455V1313Q1076 1337 998 1347T840 1358Q563 1358 419 1213T275 737Q275 522 339 387T532
190T855 127Q956 127 1042 139V720H1196Z" />
<glyph unicode="H" glyph-name="H" horiz-adv-x="1444" d="M169 0V1480H331V833H1113V1480H1275V0H1113V686H331V0H169Z" />
<glyph unicode="I" glyph-name="I" horiz-adv-x="500" d="M169 0V1480H331V0H169Z" />
<glyph unicode="J" glyph-name="J" horiz-adv-x="500" d="M-9 -271Q87 -141 128 -12T169 291V1480H331V270Q325 90 272 -52T98 -344L-9 -271Z" />
<glyph unicode="K" glyph-name="K" horiz-adv-x="1237" d="M1077 0L550 686H331V0H169V1480H331V832H553L1040 1480H1218L676 762L1260 0H1077Z" />
<glyph unicode="L" glyph-name="L" horiz-adv-x="1071" d="M169 0V1480H331V142H1059V0H169Z" />
<glyph unicode="M" glyph-name="M" horiz-adv-x="1760" d="M1394 1480H1587V0H1434V1239L953 205H807L326 1227V0H173V1480H366L883 369L1394 1480Z" />
<glyph unicode="N" glyph-name="N" horiz-adv-x="1469" d="M1146 1480H1300V0H1133L323 1232V0H169V1480H336L1146 248V1480Z" />
<glyph unicode="O" glyph-name="O" horiz-adv-x="1439" d="M430 -19T268 167T105 740Q105 1001 180 1170T393 1419T719 1499Q1008 1499 1170 1313T1333 740Q1333 480 1258 311T1045 61T719 -19Q430 -19 268 167ZM933 121T1049 265T1165 735Q1165 1067 1049 1213T719
1359Q506 1359 390 1215T273 745Q273 413 389 267T719 121Q933 121 1049 265Z" />
<glyph unicode="P" glyph-name="P" horiz-adv-x="1233" d="M169 1458Q372 1496 549 1496Q845 1496 994 1373T1143 991Q1143 741 991 613T526 485Q434 485 331 494V0H169V1458ZM766 617T874 707T982 988Q982 1183 879 1273T560 1363Q436 1363 331 1345V629Q427
617 529 617Q766 617 874 707Z" />
<glyph unicode="Q" glyph-name="Q" horiz-adv-x="1439" d="M1333 395T1198 205T801 -4Q1015 -67 1309 -95L1283 -230Q828 -174 573 -61T212 243T105 738Q105 1126 268 1312T719 1499Q1008 1499 1170 1314T1333 740Q1333 395 1198 205ZM273 412T388 267T719 121Q933
121 1049 265T1165 735Q1165 1067 1049 1213T719 1359Q506 1359 390 1215T273 745Q273 412 388 267Z" />
<glyph unicode="R" glyph-name="R" horiz-adv-x="1307" d="M1074 0L614 613Q564 611 535 611Q435 611 329 619V0H169V1456Q374 1496 564 1496Q858 1496 1000 1389T1142 1057Q1143 886 1051 780T777 634L1256 0H1074ZM390 745T433 743T536 741Q772 741 880 817T988
1055Q988 1166 945 1234T811 1333T574 1365Q502 1365 447 1360T329 1344V751Q390 745 433 743Z" />
<glyph unicode="S" glyph-name="S" horiz-adv-x="1063" d="M372 -19T277 -4T97 41V181Q187 150 281 135T464 120Q825 120 825 391Q825 466 796 516T703 601T530 664L450 685Q260 734 167 831T74 1088Q74 1216 133 1308T310 1450T601 1499Q687 1499 771 1488T924
1454V1314Q774 1360 606 1360Q419 1360 329 1293T238 1098Q238 1025 264 975T350 891T511 829L591 809Q797 757 893 659T989 401Q989 268 927 174T747 31T462 -19Q372 -19 277 -4Z" />
<glyph unicode="T" glyph-name="T" horiz-adv-x="1175" d="M506 0V1338H14V1480H1162V1338H669V0H506Z" />
<glyph unicode="U" glyph-name="U" horiz-adv-x="1417" d="M521 -19T400 43T221 232T162 560V1480H324V542Q324 323 417 222T710 121Q910 121 1003 222T1096 542V1480H1255V560Q1255 360 1197 233T1019 43T710 -19Q521 -19 400 43Z" />
<glyph unicode="V" glyph-name="V" horiz-adv-x="1313" d="M1141 1480H1302L774 0H538L11 1480H183L661 125L1141 1480Z" />
<glyph unicode="W" glyph-name="W" horiz-adv-x="2114" d="M1902 1480H2058L1642 0H1429L1059 1303L684 0H472L55 1480H221L587 149L965 1480H1156L1531 145L1902 1480Z" />
<glyph unicode="X" glyph-name="X" horiz-adv-x="1279" d="M735 756L1266 0H1080L638 630L194 0H11L543 754L30 1480H216L640 880L1064 1480H1245L735 756Z" />
<glyph unicode="Y" glyph-name="Y" horiz-adv-x="1175" d="M1197 1480L669 658V0H507V658L-31 1480H148L591 801L1029 1480H1197Z" />
<glyph unicode="Z" glyph-name="Z" horiz-adv-x="1153" d="M275 140H1092V0H61V91L866 1340H73V1480H1080V1389L275 140Z" />
<glyph unicode="[" glyph-name="bracketleft" horiz-adv-x="659" d="M189 -440V1616H696V1483H349V-307H694V-440H189Z" />
<glyph unicode="\" glyph-name="backslash" horiz-adv-x="619" d="M459 -240L0 1616H160L619 -240H459Z" />
<glyph unicode="]" glyph-name="bracketright" horiz-adv-x="659" d="M-34 -440V-307H310V1483H-36V1616H470V-440H-34Z" />
<glyph unicode="^" glyph-name="asciicircum" horiz-adv-x="1157" d="M1061 740H897L578 1344L259 740H96L493 1480H662L1061 740Z" />
<glyph unicode="_" glyph-name="underscore" horiz-adv-x="1122" d="M92 -133V0H1030V-133H92Z" />
<glyph unicode="`" glyph-name="grave" horiz-adv-x="1058" d="M455 1253L214 1616H387L603 1253H455Z" />
<glyph unicode="a" glyph-name="a" horiz-adv-x="1029" d="M616 1102T707 1065T844 942T890 711V0H756L744 121H733Q681 55 599 19T420 -18Q319 -18 245 17T132 120T92 278Q92 422 186 500T485 599L733 626V719Q733 816 703 871T612 948T453 971Q386 971 310 959T160
922V1054Q227 1077 312 1089T474 1102Q616 1102 707 1065ZM537 106T608 138T733 238V518L496 492Q369 479 312 430T254 293Q254 201 306 154T460 106Q537 106 608 138Z" />
<glyph unicode="b" glyph-name="b" horiz-adv-x="1129" d="M400 -19T313 -7T151 30V1616H311V973H321Q372 1033 449 1067T621 1102Q740 1102 833 1048T980 873T1035 563Q1035 -19 486 -19Q400 -19 313 -7ZM686 112T779 216T872 549Q872 776 793 870T573 964Q496
964 427 932T311 838V137Q393 112 498 112Q686 112 779 216Z" />
<glyph unicode="c" glyph-name="c" horiz-adv-x="875" d="M338 -19T216 117T94 542Q94 831 225 966T614 1102Q735 1102 837 1074V938Q730 965 632 965Q504 965 423 924T301 791T260 546Q260 391 297 297T409 160T597 117Q702 117 837 162V26Q710 -19 574 -19Q338
-19 216 117Z" />
<glyph unicode="d" glyph-name="d" horiz-adv-x="1129" d="M397 -19T301 36T150 211T94 520Q94 811 232 956T642 1102Q720 1102 818 1087V1616H978V0H841L830 118H820Q769 55 692 18T521 -19Q397 -19 301 36ZM634 119T703 152T818 253V952Q780 960 732 965T639
971Q446 971 352 868T257 535Q257 308 335 214T558 119Q634 119 703 152Z" />
<glyph unicode="e" glyph-name="e" horiz-adv-x="1030" d="M951 489H256Q260 352 301 269T423 149T627 112Q745 112 897 156V25Q749 -19 608 -19Q349 -19 222 115T94 543Q94 822 209 962T533 1102Q736 1102 843 963T951 539V489ZM400 985T330 895T256 599H797Q793
806 727 895T531 985Q400 985 330 895Z" />
<glyph unicode="f" glyph-name="f" horiz-adv-x="717" d="M503 1501T443 1444T382 1255V1085H723V953H382V0H223V953H18V1085H223V1247Q223 1439 323 1537T618 1636Q693 1636 765 1624V1489Q698 1501 633 1501Q503 1501 443 1444Z" />
<glyph unicode="g" glyph-name="g" horiz-adv-x="1129" d="M404 -460T319 -448T163 -411V-277Q326 -328 474 -328Q594 -328 669 -295T781 -188T818 10V115H808Q757 55 680 21T508 -14Q390 -14 297 40T149 214T94 521Q94 811 232 956T644 1102Q728 1102 816 1089T978
1053V35Q978 -141 923 -250T759 -409T482 -460Q404 -460 319 -448ZM632 123T702 154T818 248V949Q728 971 631 971Q444 971 351 867T257 536Q257 309 335 216T556 123Q632 123 702 154Z" />
<glyph unicode="h" glyph-name="h" horiz-adv-x="1137" d="M151 1616H311V964H321Q386 1032 471 1067T655 1102Q814 1102 905 1011T997 718V0H837V711Q837 844 779 900T610 957Q527 957 447 922T311 814V0H151V1616Z" />
<glyph unicode="i" glyph-name="i" horiz-adv-x="463" d="M151 0V1085H311V0H151ZM177 1320T148 1346T119 1421Q119 1469 148 1496T231 1523Q284 1523 313 1496T342 1421Q342 1373 313 1347T231 1320Q177 1320 148 1346Z" />
<glyph unicode="j" glyph-name="j" horiz-adv-x="463" d="M-28 -392Q68 -262 109 -133T151 170V1085H311V179Q311 -14 257 -162T79 -464L-28 -392ZM176 1325T147 1351T118 1426Q118 1474 147 1501T230 1528Q283 1528 312 1501T341 1426Q341 1378 312 1352T230
1325Q176 1325 147 1351Z" />
<glyph unicode="k" glyph-name="k" horiz-adv-x="1038" d="M878 0L495 489H311V0H151V1616H311V623H494L848 1085H1026L627 558L1059 0H878Z" />
<glyph unicode="l" glyph-name="l" horiz-adv-x="462" d="M151 0V1616H311V0H151Z" />
<glyph unicode="m" glyph-name="m" horiz-adv-x="1694" d="M1380 1102T1467 1011T1555 718V0H1395V711Q1395 843 1341 901T1190 959Q1120 959 1050 926T929 820Q935 775 935 722V0H777V711Q777 844 725 901T577 959Q504 959 432 922T311 810V0H151V1085H286L297
962H308Q370 1031 450 1066T622 1102Q819 1102 893 946Q964 1027 1051 1064T1228 1102Q1380 1102 1467 1011Z" />
<glyph unicode="n" glyph-name="n" horiz-adv-x="1137" d="M151 1085H286L297 962H308Q375 1030 462 1066T649 1102Q812 1102 904 1011T997 717V0H837V710Q837 843 779 901T610 959Q529 959 448 924T311 815V0H151V1085Z" />
<glyph unicode="o" glyph-name="o" horiz-adv-x="1111" d="M337 -19T216 118T94 541Q94 826 215 964T555 1102Q775 1102 896 965T1017 542Q1017 258 895 120T555 -19Q337 -19 216 118ZM701 111T777 209T853 539Q853 774 777 872T555 971Q410 971 334 873T257 544Q257
310 333 211T555 111Q701 111 777 209Z" />
<glyph unicode="p" glyph-name="p" horiz-adv-x="1129" d="M151 1085H288L299 965H309Q360 1028 437 1065T608 1102Q731 1102 827 1048T979 874T1035 563Q1035 271 897 126T487 -19Q415 -19 311 -5V-440H151V1085ZM683 112T777 215T872 548Q872 777 793 870T571
964Q495 964 426 931T311 830V131Q349 123 397 118T490 112Q683 112 777 215Z" />
<glyph unicode="q" glyph-name="q" horiz-adv-x="1129" d="M818 110H808Q757 50 680 16T508 -19Q389 -19 296 35T149 210T94 520Q94 1102 643 1102Q728 1102 816 1089T978 1053V-440H818V110ZM632 119T702 150T818 244V949Q728 971 630 971Q444 971 351 867T257
534Q257 307 336 213T556 119Q632 119 702 150Z" />
<glyph unicode="r" glyph-name="r" horiz-adv-x="724" d="M151 1085H285L298 940H308Q362 1015 446 1055T625 1096Q669 1096 712 1088V939Q669 946 618 946Q533 946 448 907T311 793V0H151V1085Z" />
<glyph unicode="s" glyph-name="s" horiz-adv-x="900" d="M245 -19T109 25V154Q258 109 410 109Q678 109 678 291Q678 365 640 404T511 463L364 493Q219 524 154 596T89 788Q89 881 136 952T279 1062T518 1102Q649 1102 774 1070V940Q708 958 648 966T522 974Q375
974 309 925T242 792Q242 725 279 684T404 624L551 594Q699 563 765 492T832 299Q832 149 723 65T410 -19Q245 -19 109 25Z" />
<glyph unicode="t" glyph-name="t" horiz-adv-x="749" d="M657 120T733 136V1Q648 -19 566 -19Q215 -19 215 341V953H10V1085H215L241 1480H375V1085H716V953H375V366Q375 233 429 177T600 120Q657 120 733 136Z" />
<glyph unicode="u" glyph-name="u" horiz-adv-x="1127" d="M324 -18T232 73T139 364V1085H299V372Q299 240 357 183T521 125Q601 125 681 161T816 269V1085H976V0H841L829 119H819Q752 51 667 17T485 -18Q324 -18 232 73Z" />
<glyph unicode="v" glyph-name="v" horiz-adv-x="1057" d="M880 1085H1041L631 0H425L16 1085H186L533 143L880 1085Z" />
<glyph unicode="w" glyph-name="w" horiz-adv-x="1691" d="M1480 1085H1631L1315 0H1126L847 927L566 0H378L60 1085H217L480 166L755 1085H943L1217 171L1480 1085Z" />
<glyph unicode="x" glyph-name="x" horiz-adv-x="1010" d="M600 549L997 0H814L504 432L195 0H15L409 547L23 1085H206L507 666L809 1085H986L600 549Z" />
<glyph unicode="y" glyph-name="y" horiz-adv-x="1057" d="M880 1085H1041L465 -440H305L472 0H425L16 1085H186L530 134L880 1085Z" />
<glyph unicode="z" glyph-name="z" horiz-adv-x="918" d="M264 133H864V0H62V99L651 953H74V1085H852V986L264 133Z" />
<glyph unicode="{" glyph-name="braceleft" horiz-adv-x="699" d="M389 767T352 707T233 625Q314 602 351 543T389 382V-112Q389 -223 444 -273T613 -324H736V-449Q668 -460 596 -460Q414 -460 322 -373T229 -110V392Q229 477 188 517T65 558H36V691H65Q147 691
188 731T229 857V1286Q229 1461 321 1548T596 1636Q668 1636 736 1625V1500H613Q499 1500 444 1450T389 1288V867Q389 767 352 707Z" />
<glyph unicode="|" glyph-name="bar" horiz-adv-x="486" d="M169 -440V1616H317V-440H169Z" />
<glyph unicode="}" glyph-name="braceright" horiz-adv-x="699" d="M664 691V558H635Q470 558 470 392V-110Q470 -285 378 -372T103 -460Q30 -460 -36 -449V-324H86Q200 -324 255 -274T310 -112V382Q310 483 348 542T467 625Q386 647 348 707T310 867V1288Q310
1399 255 1449T86 1500H-36V1625Q30 1636 103 1636Q285 1636 377 1549T470 1286V857Q470 691 635 691H664Z" />
<glyph unicode="~" glyph-name="asciitilde" horiz-adv-x="1075" d="M669 633T626 648T517 696Q464 723 429 736T357 750Q296 750 246 724T149 641V785Q186 831 239 854T357 878Q406 878 452 862T559 815Q614 788 648 775T718 762Q778 762 829 788T926 870V726Q851
633 718 633Q669 633 626 648Z" />
<glyph unicode="&#xa0;" glyph-name="uni00A0" horiz-adv-x="489" />
<glyph unicode="&#xa1;" glyph-name="exclamdown" horiz-adv-x="501" d="M302 1098T334 1068T366 987Q366 937 334 906T250 875Q198 875 167 905T135 987Q135 1038 167 1068T250 1098Q302 1098 334 1068ZM200 706H302L336 164V-380H165V164L200 706Z" />
<glyph unicode="&#xa2;" glyph-name="cent" horiz-adv-x="880" d="M501 965T421 924T300 791T260 546Q260 391 297 297T409 160T597 117Q702 117 837 162V26Q735 -10 632 -17V-240H492V-15Q296 7 195 143T94 542Q94 795 194 929T492 1093V1325H632V1102Q738 1100
837 1074V938Q729 965 629 965Q501 965 421 924Z" />
<glyph unicode="&#xa3;" glyph-name="sterling" horiz-adv-x="1267" d="M1194 136V0H77V136H297V686H77V814H297V1043Q297 1271 432 1385T833 1499Q917 1499 1000 1488T1153 1455V1315Q1006 1360 840 1360Q642 1360 549 1287T456 1047V814H976V686H456V136H1194Z" />
<glyph unicode="&#xa4;" glyph-name="currency" horiz-adv-x="1157" d="M950 458L1055 357L962 264L860 368L785 462Q698 397 578 397Q457 397 372 462L296 368L195 264L102 357L207 458L304 535Q247 620 247 740Q247 859 304 944L207 1022L101 1123L194 1216L295
1112L372 1016Q457 1081 578 1081Q699 1081 784 1016L862 1112L963 1216L1056 1123L950 1022L852 944Q910 858 910 740Q910 622 853 535L950 458ZM679 501T740 564T801 740Q801 810 775 864T699 948T580 979Q514 979 463 951T384 868T356 740Q356 666 384 612T462
530T578 501Q679 501 740 564Z" />
<glyph unicode="&#xa5;" glyph-name="yen" horiz-adv-x="1213" d="M1219 1480L747 749H1006V639H688V409H1006V299H688V0H526V299H209V409H526V639H209V749H467L-9 1480H170L611 801L1051 1480H1219Z" />
<glyph unicode="&#xa6;" glyph-name="brokenbar" horiz-adv-x="486" d="M169 836V1616H317V836H169ZM169 -440V340H317V-440H169Z" />
<glyph unicode="&#xa7;" glyph-name="section" horiz-adv-x="1014" d="M866 414T866 297Q866 148 758 65T440 -19Q282 -19 146 22V147Q225 124 295 114T440 104Q583 104 649 151T715 287Q715 360 677 399T548 459L387 493Q249 524 184 595T119 784Q119 848 144
901T218 996Q145 1066 145 1183Q145 1276 192 1346T336 1457T579 1497Q711 1497 828 1467V1343Q763 1359 707 1366T587 1373Q434 1373 365 1324T296 1191Q296 1124 334 1083T459 1022L621 989Q765 958 830 888T895 698Q895 567 797 483Q866 414 866 297ZM590 579Q655
564 694 547Q757 601 757 687Q757 764 716 806T579 870L419 903Q364 915 320 933Q257 876 257 792Q257 722 297 677T429 612L590 579Z" />
<glyph unicode="&#xa8;" glyph-name="dieresis" horiz-adv-x="1058" d="M264 1322T237 1348T209 1421Q209 1467 236 1494T312 1521Q359 1521 386 1494T414 1421Q414 1375 387 1349T312 1322Q264 1322 237 1348ZM699 1322T672 1348T644 1421Q644 1467 671 1494T746
1521Q794 1521 821 1494T849 1421Q849 1375 822 1349T746 1322Q699 1322 672 1348Z" />
<glyph unicode="&#xa9;" glyph-name="copyright" horiz-adv-x="1702" d="M629 -22T460 73T198 340T105 740Q105 967 198 1139T460 1407T851 1502Q1072 1502 1241 1407T1503 1140T1596 740Q1596 513 1503 341T1241 73T851 -22Q629 -22 460 73ZM1043 84T1187 165T1409
394T1488 740Q1488 937 1410 1085T1187 1315T851 1396Q659 1396 515 1315T293 1086T214 740Q214 543 292 395T515 165T851 84Q1043 84 1187 165ZM773 324T683 371T544 509T494 733Q494 929 604 1036T917 1144Q1019 1144 1109 1118V1004Q1010 1028 925 1028Q626
1028 626 736Q626 588 699 514T906 440Q1002 440 1109 477V363Q1017 324 894 324Q773 324 683 371Z" />
<glyph unicode="&#xaa;" glyph-name="ordfeminine" horiz-adv-x="867" d="M519 1495T597 1464T715 1362T755 1171V610H630L618 707H609Q565 654 496 625T346 595Q261 595 199 624T103 708T69 835Q69 952 148 1015T400 1094L607 1114V1186Q607 1258 582 1299T507
1357T373 1375Q317 1375 254 1365T128 1335V1455Q187 1474 258 1484T395 1495Q519 1495 597 1464ZM449 707T506 731T607 805V1023L416 1004Q312 994 265 957T218 852Q218 781 261 744T390 707Q449 707 506 731Z" />
<glyph unicode="&#xab;" glyph-name="guillemotleft" horiz-adv-x="1008" d="M367 137L112 563L367 988H532L278 563L532 137H367ZM771 137L516 563L771 988H936L682 563L936 137H771Z" />
<glyph unicode="&#xac;" glyph-name="logicalnot" horiz-adv-x="1334" d="M1058 194V695H149V825H1194V194H1058Z" />
<glyph unicode="&#xad;" glyph-name="uni00AD" horiz-adv-x="837" d="M149 495V630H689V495H149Z" />
<glyph unicode="&#xae;" glyph-name="registered" horiz-adv-x="1502" d="M930 1498T1068 1420T1284 1202T1361 882Q1361 702 1284 563T1069 346T751 268Q572 268 434 345T218 562T141 882Q141 1062 218 1202T433 1420T751 1498Q930 1498 1068 1420ZM906 357T1023
422T1203 605T1267 882Q1267 1040 1204 1159T1023 1343T751 1409Q597 1409 480 1344T299 1159T235 882Q235 725 299 606T479 422T751 357Q906 357 1023 422ZM988 937T955 894T857 831L1014 600H910L762 816H739H633L632 600H540V1192H739Q861 1192 924 1144T988
1003Q988 937 955 894ZM754 896Q827 896 862 922T897 1003Q897 1112 754 1112H633V896H754Z" />
<glyph unicode="&#xaf;" glyph-name="overscore" horiz-adv-x="1058" d="M219 1368V1476H839V1368H219Z" />
<glyph unicode="&#xb0;" glyph-name="degree" horiz-adv-x="980" d="M390 803T311 848T186 972T141 1150Q141 1249 186 1328T310 1452T490 1497Q590 1497 669 1453T794 1329T839 1150Q839 1051 794 972T670 848T490 803Q390 803 311 848ZM558 912T611 941T693
1024T723 1150Q723 1222 693 1276T610 1359T490 1388Q422 1388 369 1359T286 1276T256 1150Q256 1078 286 1024T369 941T490 912Q558 912 611 941Z" />
<glyph unicode="&#xb1;" glyph-name="plusminus" horiz-adv-x="1075" d="M469 337V668H149V798H469V1130H606V798H926V668H606V337H469ZM149 0V130H926V0H149Z" />
<glyph unicode="&#xb2;" glyph-name="uni00B2" horiz-adv-x="788" d="M702 -21V-136H90V-63L383 310Q458 404 489 468T521 593Q521 682 468 723T303 764Q182 764 77 725V839Q125 857 188 867T319 877Q655 877 655 606Q655 526 619 448T495 261L271 -21H702Z" />
<glyph unicode="&#xb3;" glyph-name="uni00B3" horiz-adv-x="788" d="M593 363T649 300T705 136Q705 -1 608 -75T324 -149Q190 -149 71 -111V-3Q131 -22 195 -32T320 -42Q449 -42 513 5T577 144Q577 323 331 323H196V431H280Q409 431 475 477T542 609Q542 688
487 729T321 770Q198 770 94 731V840Q141 858 205 867T334 877Q498 877 585 810T672 620Q672 533 623 472T487 385Q593 363 649 300Z" />
<glyph unicode="&#xb4;" glyph-name="acute" horiz-adv-x="1058" d="M455 1253L671 1616H844L603 1253H455Z" />
<glyph unicode="&#xb5;" glyph-name="uni00B5" horiz-adv-x="1127" d="M976 1085V0H841L829 119H819Q758 52 678 17T511 -18Q372 -18 299 61V-440H139V1085H299V372Q299 240 357 183T521 125Q601 125 681 161T816 269V1085H976Z" />
<glyph unicode="&#xb6;" glyph-name="paragraph" horiz-adv-x="1233" d="M682 493Q621 485 546 485Q314 485 202 613T89 991Q89 1250 200 1373T536 1496Q664 1496 808 1480V0H682V493ZM938 0V1480H1064V0H938Z" />
<glyph unicode="&#xb7;" glyph-name="middot" horiz-adv-x="461" d="M178 448T147 478T115 559Q115 610 146 640T230 671Q282 671 314 640T346 559Q346 508 314 478T230 448Q178 448 147 478Z" />
<glyph unicode="&#xb8;" glyph-name="cedilla" horiz-adv-x="1058" d="M656 -113T695 -153T735 -259Q735 -333 682 -374T530 -416Q485 -416 440 -407T361 -381V-300Q436 -337 527 -337Q584 -337 611 -317T639 -254Q639 -168 525 -168H488V20H580V-104Q656 -113 695 -153Z" />
<glyph unicode="&#xb9;" glyph-name="uni00B9" horiz-adv-x="788" d="M503 -21H721V-136H140V-21H369V707L138 545V672L417 868H503V-21Z" />
<glyph unicode="&#xba;" glyph-name="ordmasculine" horiz-adv-x="942" d="M284 595T180 707T75 1046Q75 1271 179 1383T471 1495Q658 1495 762 1383T867 1046Q867 822 762 709T471 595Q284 595 180 707ZM589 715T652 791T715 1046Q715 1224 652 1299T471 1375Q353
1375 290 1300T227 1046Q227 868 290 792T471 715Q589 715 652 791Z" />
<glyph unicode="&#xbb;" glyph-name="guillemotright" horiz-adv-x="1008" d="M72 137L327 563L72 988H238L492 563L238 137H72ZM476 137L731 563L476 988H642L896 563L642 137H476Z" />
<glyph unicode="&#xbc;" glyph-name="onequarter" horiz-adv-x="1852" d="M503 731H721V616H140V731H369V1459L138 1297V1424L417 1620H503V731ZM460 -136L1253 1616H1392L599 -136H460ZM1827 204V96H1689V-136H1569V96H1094V171L1455 864H1584L1243 204H1569L1593
526H1689V204H1827Z" />
<glyph unicode="&#xbd;" glyph-name="onehalf" horiz-adv-x="1852" d="M503 731H721V616H140V731H369V1459L138 1297V1424L417 1620H503V731ZM460 -136L1253 1616H1392L599 -136H460ZM1766 -21V-136H1154V-63L1447 310Q1522 404 1553 468T1585 593Q1585 682 1532
723T1367 764Q1246 764 1141 725V839Q1189 857 1252 867T1383 877Q1719 877 1719 606Q1719 526 1683 448T1559 261L1335 -21H1766Z" />
<glyph unicode="&#xbe;" glyph-name="threequarters" horiz-adv-x="1852" d="M593 1115T649 1052T705 888Q705 751 608 677T324 603Q190 603 71 641V749Q131 730 195 720T320 710Q449 710 513 757T577 896Q577 1075 331 1075H196V1183H280Q409 1183 475 1229T542
1361Q542 1440 487 1481T321 1522Q198 1522 94 1483V1592Q141 1610 205 1619T334 1629Q498 1629 585 1562T672 1372Q672 1285 623 1224T487 1137Q593 1115 649 1052ZM460 -136L1253 1616H1392L599 -136H460ZM1827 204V96H1689V-136H1569V96H1094V171L1455 864H1584L1243
204H1569L1593 526H1689V204H1827Z" />
<glyph unicode="&#xbf;" glyph-name="questiondown" horiz-adv-x="903" d="M549 1098T581 1069T613 990Q613 941 582 912T498 882Q446 882 414 912T382 990Q382 1038 414 1068T498 1098Q549 1098 581 1069ZM576 318Q441 276 363 228T251 120T217 -21Q217 -140
299 -203T541 -267Q711 -267 864 -211V-346Q794 -371 705 -385T527 -400Q300 -400 180 -304T59 -31Q59 73 96 151T216 291T432 403L447 725H549L576 318Z" />
<glyph unicode="&#xc0;" glyph-name="Agrave" horiz-adv-x="1348" d="M1154 0L985 479H360L191 0H28L559 1480H788L1319 0H1154ZM408 616H936L672 1362L408 616ZM601 1608L396 1892H569L747 1608H601Z" />
<glyph unicode="&#xc1;" glyph-name="Aacute" horiz-adv-x="1348" d="M1154 0L985 479H360L191 0H28L559 1480H788L1319 0H1154ZM408 616H936L672 1362L408 616ZM600 1608L778 1892H951L747 1608H600Z" />
<glyph unicode="&#xc2;" glyph-name="Acircumflex" horiz-adv-x="1348" d="M1154 0L985 479H360L191 0H28L559 1480H788L1319 0H1154ZM408 616H936L672 1362L408 616ZM993 1608H853L674 1822L495 1608H355L600 1892H748L993 1608Z" />
<glyph unicode="&#xc3;" glyph-name="Atilde" horiz-adv-x="1348" d="M1154 0L985 479H360L191 0H28L559 1480H788L1319 0H1154ZM408 616H936L672 1362L408 616ZM786 1668T751 1678T659 1708Q614 1726 582 1735T517 1744Q464 1744 424 1727T346 1673V1784Q409
1849 519 1849Q562 1849 599 1839T689 1808Q734 1790 766 1781T830 1772Q883 1772 923 1789T1002 1843V1733Q970 1700 928 1684T828 1668Q786 1668 751 1678Z" />
<glyph unicode="&#xc4;" glyph-name="Adieresis" horiz-adv-x="1348" d="M1154 0L985 479H360L191 0H28L559 1480H788L1319 0H1154ZM408 616H936L672 1362L408 616ZM391 1659T364 1683T337 1751Q337 1795 364 1820T440 1846Q488 1846 515 1821T542 1751Q542 1708
515 1684T440 1659Q391 1659 364 1683ZM860 1659T833 1683T806 1751Q806 1795 833 1820T908 1846Q956 1846 983 1821T1011 1751Q1011 1708 984 1684T908 1659Q860 1659 833 1683Z" />
<glyph unicode="&#xc5;" glyph-name="Aring" horiz-adv-x="1348" d="M985 479H360L191 0H28L559 1480H603Q547 1500 514 1548T481 1661Q481 1716 506 1760T576 1829T677 1854Q733 1854 777 1829T847 1760T872 1661Q872 1597 839 1549T751 1480H788L1319 0H1154L985
479ZM560 1606T592 1574T677 1542Q729 1542 761 1574T793 1661Q793 1715 761 1747T677 1780Q625 1780 593 1748T560 1661Q560 1606 592 1574ZM408 616H936L672 1362L408 616Z" />
<glyph unicode="&#xc6;" glyph-name="AE" horiz-adv-x="1846" d="M1091 138H1774V0H940L907 479H365L192 0H28L568 1480H1764V1342H1006L1042 828H1667V691H1052L1091 138ZM415 616H898L848 1342H677L415 616Z" />
<glyph unicode="&#xc7;" glyph-name="Ccedilla" horiz-adv-x="1151" d="M624 1358T510 1297T336 1100T276 741Q276 512 336 376T508 181T787 122Q869 122 946 135T1111 178V36Q955 -19 775 -19H753V-102Q838 -109 884 -148T931 -257Q931 -334 874 -375T710 -416Q660
-416 610 -407T517 -379V-298Q611 -337 704 -337Q834 -337 834 -253Q834 -168 702 -168H661V-13Q393 15 249 195T105 737Q105 1128 282 1313T791 1499Q953 1499 1111 1456V1314Q958 1358 797 1358Q624 1358 510 1297Z" />
<glyph unicode="&#xc8;" glyph-name="Egrave" horiz-adv-x="1166" d="M330 138H1094V0H169V1480H1084V1342H330V828H987V691H330V138ZM576 1608L371 1892H544L722 1608H576Z" />
<glyph unicode="&#xc9;" glyph-name="Eacute" horiz-adv-x="1166" d="M330 138H1094V0H169V1480H1084V1342H330V828H987V691H330V138ZM575 1608L753 1892H926L722 1608H575Z" />
<glyph unicode="&#xca;" glyph-name="Ecircumflex" horiz-adv-x="1166" d="M330 138H1094V0H169V1480H1084V1342H330V828H987V691H330V138ZM968 1608H828L649 1822L470 1608H330L575 1892H723L968 1608Z" />
<glyph unicode="&#xcb;" glyph-name="Edieresis" horiz-adv-x="1166" d="M330 138H1094V0H169V1480H1084V1342H330V828H987V691H330V138ZM366 1659T339 1683T312 1751Q312 1795 339 1820T415 1846Q463 1846 490 1821T517 1751Q517 1708 490 1684T415 1659Q366
1659 339 1683ZM835 1659T808 1683T781 1751Q781 1795 808 1820T883 1846Q931 1846 958 1821T986 1751Q986 1708 959 1684T883 1659Q835 1659 808 1683Z" />
<glyph unicode="&#xcc;" glyph-name="Igrave" horiz-adv-x="500" d="M169 0V1480H331V0H169ZM177 1608L-28 1892H145L323 1608H177Z" />
<glyph unicode="&#xcd;" glyph-name="Iacute" horiz-adv-x="500" d="M169 0V1480H331V0H169ZM176 1608L354 1892H527L323 1608H176Z" />
<glyph unicode="&#xce;" glyph-name="Icircumflex" horiz-adv-x="500" d="M169 0V1480H331V0H169ZM569 1608H429L250 1822L71 1608H-69L176 1892H324L569 1608Z" />
<glyph unicode="&#xcf;" glyph-name="Idieresis" horiz-adv-x="500" d="M169 0V1480H331V0H169ZM-33 1659T-60 1683T-87 1751Q-87 1795 -60 1820T16 1846Q64 1846 91 1821T118 1751Q118 1708 91 1684T16 1659Q-33 1659 -60 1683ZM436 1659T409 1683T382 1751Q382
1795 409 1820T484 1846Q532 1846 559 1821T587 1751Q587 1708 560 1684T484 1659Q436 1659 409 1683Z" />
<glyph unicode="&#xd0;" glyph-name="Eth" horiz-adv-x="1400" d="M924 1495T1109 1309T1294 740Q1294 353 1102 171T520 -12Q354 -12 169 9V705H3V819H169V1456Q261 1474 362 1484T556 1495Q924 1495 1109 1309ZM746 127T873 190T1063 388T1127 740Q1127 1060
988 1208T561 1356Q456 1356 331 1337V819H662V705H331V140Q431 127 552 127Q746 127 873 190Z" />
<glyph unicode="&#xd1;" glyph-name="Ntilde" horiz-adv-x="1469" d="M1146 1480H1300V0H1133L323 1232V0H169V1480H336L1146 248V1480ZM847 1668T812 1678T720 1708Q675 1726 643 1735T578 1744Q525 1744 485 1727T407 1673V1784Q470 1849 580 1849Q623 1849
660 1839T750 1808Q795 1790 827 1781T891 1772Q944 1772 984 1789T1063 1843V1733Q1031 1700 989 1684T889 1668Q847 1668 812 1678Z" />
<glyph unicode="&#xd2;" glyph-name="Ograve" horiz-adv-x="1439" d="M430 -19T268 167T105 740Q105 1001 180 1170T393 1419T719 1499Q1008 1499 1170 1313T1333 740Q1333 480 1258 311T1045 61T719 -19Q430 -19 268 167ZM933 121T1049 265T1165 735Q1165 1067
1049 1213T719 1359Q506 1359 390 1215T273 745Q273 413 389 267T719 121Q933 121 1049 265ZM646 1608L441 1892H614L792 1608H646Z" />
<glyph unicode="&#xd3;" glyph-name="Oacute" horiz-adv-x="1439" d="M430 -19T268 167T105 740Q105 1001 180 1170T393 1419T719 1499Q1008 1499 1170 1313T1333 740Q1333 480 1258 311T1045 61T719 -19Q430 -19 268 167ZM933 121T1049 265T1165 735Q1165 1067
1049 1213T719 1359Q506 1359 390 1215T273 745Q273 413 389 267T719 121Q933 121 1049 265ZM645 1608L823 1892H996L792 1608H645Z" />
<glyph unicode="&#xd4;" glyph-name="Ocircumflex" horiz-adv-x="1439" d="M430 -19T268 167T105 740Q105 1001 180 1170T393 1419T719 1499Q1008 1499 1170 1313T1333 740Q1333 480 1258 311T1045 61T719 -19Q430 -19 268 167ZM933 121T1049 265T1165 735Q1165
1067 1049 1213T719 1359Q506 1359 390 1215T273 745Q273 413 389 267T719 121Q933 121 1049 265ZM1038 1608H898L719 1822L540 1608H400L645 1892H793L1038 1608Z" />
<glyph unicode="&#xd5;" glyph-name="Otilde" horiz-adv-x="1439" d="M430 -19T268 167T105 740Q105 1001 180 1170T393 1419T719 1499Q1008 1499 1170 1313T1333 740Q1333 480 1258 311T1045 61T719 -19Q430 -19 268 167ZM933 121T1049 265T1165 735Q1165 1067
1049 1213T719 1359Q506 1359 390 1215T273 745Q273 413 389 267T719 121Q933 121 1049 265ZM831 1668T796 1678T704 1708Q659 1726 627 1735T562 1744Q509 1744 469 1727T391 1673V1784Q454 1849 564 1849Q607 1849 644 1839T734 1808Q779 1790 811 1781T875 1772Q928
1772 968 1789T1047 1843V1733Q1015 1700 973 1684T873 1668Q831 1668 796 1678Z" />
<glyph unicode="&#xd6;" glyph-name="Odieresis" horiz-adv-x="1439" d="M430 -19T268 167T105 740Q105 1001 180 1170T393 1419T719 1499Q1008 1499 1170 1313T1333 740Q1333 480 1258 311T1045 61T719 -19Q430 -19 268 167ZM933 121T1049 265T1165 735Q1165
1067 1049 1213T719 1359Q506 1359 390 1215T273 745Q273 413 389 267T719 121Q933 121 1049 265ZM436 1659T409 1683T382 1751Q382 1795 409 1820T485 1846Q533 1846 560 1821T587 1751Q587 1708 560 1684T485 1659Q436 1659 409 1683ZM905 1659T878 1683T851
1751Q851 1795 878 1820T953 1846Q1001 1846 1028 1821T1056 1751Q1056 1708 1029 1684T953 1659Q905 1659 878 1683Z" />
<glyph unicode="&#xd7;" glyph-name="multiply" horiz-adv-x="999" d="M209 378L118 469L408 760L118 1051L209 1142L500 851L790 1142L881 1051L591 760L881 469L790 378L500 669L209 378Z" />
<glyph unicode="&#xd8;" glyph-name="Oslash" horiz-adv-x="1439" d="M1333 1096T1333 740Q1333 480 1258 311T1045 61T719 -19Q469 -19 318 115L212 -28L130 33L248 192Q105 385 105 740Q105 1001 180 1170T393 1419T719 1499Q969 1499 1119 1365L1225 1508L1307
1447L1189 1289Q1333 1096 1333 740ZM273 479T350 330L1026 1240Q917 1359 719 1359Q506 1359 390 1215T273 745Q273 479 350 330ZM933 121T1049 265T1165 735Q1165 1000 1087 1151L411 240Q520 121 719 121Q933 121 1049 265Z" />
<glyph unicode="&#xd9;" glyph-name="Ugrave" horiz-adv-x="1417" d="M521 -19T400 43T221 232T162 560V1480H324V542Q324 323 417 222T710 121Q910 121 1003 222T1096 542V1480H1255V560Q1255 360 1197 233T1019 43T710 -19Q521 -19 400 43ZM637 1608L432 1892H605L783
1608H637Z" />
<glyph unicode="&#xda;" glyph-name="Uacute" horiz-adv-x="1417" d="M521 -19T400 43T221 232T162 560V1480H324V542Q324 323 417 222T710 121Q910 121 1003 222T1096 542V1480H1255V560Q1255 360 1197 233T1019 43T710 -19Q521 -19 400 43ZM636 1608L814 1892H987L783
1608H636Z" />
<glyph unicode="&#xdb;" glyph-name="Ucircumflex" horiz-adv-x="1417" d="M521 -19T400 43T221 232T162 560V1480H324V542Q324 323 417 222T710 121Q910 121 1003 222T1096 542V1480H1255V560Q1255 360 1197 233T1019 43T710 -19Q521 -19 400 43ZM1029 1608H889L710
1822L531 1608H391L636 1892H784L1029 1608Z" />
<glyph unicode="&#xdc;" glyph-name="Udieresis" horiz-adv-x="1417" d="M521 -19T400 43T221 232T162 560V1480H324V542Q324 323 417 222T710 121Q910 121 1003 222T1096 542V1480H1255V560Q1255 360 1197 233T1019 43T710 -19Q521 -19 400 43ZM427 1659T400
1683T373 1751Q373 1795 400 1820T476 1846Q524 1846 551 1821T578 1751Q578 1708 551 1684T476 1659Q427 1659 400 1683ZM896 1659T869 1683T842 1751Q842 1795 869 1820T944 1846Q992 1846 1019 1821T1047 1751Q1047 1708 1020 1684T944 1659Q896 1659 869 1683Z"
/>
<glyph unicode="&#xdd;" glyph-name="Yacute" horiz-adv-x="1175" d="M1197 1480L669 658V0H507V658L-31 1480H148L591 801L1029 1480H1197ZM514 1608L692 1892H865L661 1608H514Z" />
<glyph unicode="&#xde;" glyph-name="Thorn" horiz-adv-x="1243" d="M169 1481H331V1248Q441 1265 551 1265Q847 1265 995 1142T1143 761Q1143 510 992 383T527 255Q435 255 331 264V0H169V1481ZM766 387T874 477T982 758Q982 953 879 1043T560 1133Q436 1133
331 1115V399Q416 387 529 387Q766 387 874 477Z" />
<glyph unicode="&#xdf;" glyph-name="germandbls" horiz-adv-x="1389" d="M1189 562T1255 492T1321 299Q1321 149 1211 65T893 -19Q731 -19 598 21V151Q744 109 893 109Q1035 109 1101 155T1167 291Q1167 365 1129 404T1000 463L853 493Q708 523 643 595T578 786Q578
880 625 949T766 1058T1001 1097Q1018 1097 1062 1095Q1068 1140 1068 1183Q1068 1357 980 1435T740 1513Q563 1513 473 1416T383 1108V0H223V950H18V1085H223V1111Q223 1369 356 1502T732 1636Q869 1636 972 1588T1134 1436T1193 1173Q1193 1122 1185 1065T1165
961Q1091 974 1017 974Q866 974 799 925T731 792Q731 725 768 684T893 624L1040 594Q1189 562 1255 492Z" />
<glyph unicode="&#xe0;" glyph-name="agrave" horiz-adv-x="1029" d="M616 1102T707 1065T844 942T890 711V0H756L744 121H733Q681 55 599 19T420 -18Q319 -18 245 17T132 120T92 278Q92 422 186 500T485 599L733 626V719Q733 816 703 871T612 948T453 971Q386
971 310 959T160 922V1054Q227 1077 312 1089T474 1102Q616 1102 707 1065ZM537 106T608 138T733 238V518L496 492Q369 479 312 430T254 293Q254 201 306 154T460 106Q537 106 608 138ZM437 1253L196 1616H369L585 1253H437Z" />
<glyph unicode="&#xe1;" glyph-name="aacute" horiz-adv-x="1029" d="M616 1102T707 1065T844 942T890 711V0H756L744 121H733Q681 55 599 19T420 -18Q319 -18 245 17T132 120T92 278Q92 422 186 500T485 599L733 626V719Q733 816 703 871T612 948T453 971Q386
971 310 959T160 922V1054Q227 1077 312 1089T474 1102Q616 1102 707 1065ZM537 106T608 138T733 238V518L496 492Q369 479 312 430T254 293Q254 201 306 154T460 106Q537 106 608 138ZM437 1253L653 1616H826L585 1253H437Z" />
<glyph unicode="&#xe2;" glyph-name="acircumflex" horiz-adv-x="1029" d="M616 1102T707 1065T844 942T890 711V0H756L744 121H733Q681 55 599 19T420 -18Q319 -18 245 17T132 120T92 278Q92 422 186 500T485 599L733 626V719Q733 816 703 871T612 948T453 971Q386
971 310 959T160 922V1054Q227 1077 312 1089T474 1102Q616 1102 707 1065ZM537 106T608 138T733 238V518L496 492Q369 479 312 430T254 293Q254 201 306 154T460 106Q537 106 608 138ZM806 1253H678L511 1533L344 1253H215L439 1616H583L806 1253Z" />
<glyph unicode="&#xe3;" glyph-name="atilde" horiz-adv-x="1029" d="M616 1102T707 1065T844 942T890 711V0H756L744 121H733Q681 55 599 19T420 -18Q319 -18 245 17T132 120T92 278Q92 422 186 500T485 599L733 626V719Q733 816 703 871T612 948T453 971Q386
971 310 959T160 922V1054Q227 1077 312 1089T474 1102Q616 1102 707 1065ZM537 106T608 138T733 238V518L496 492Q369 479 312 430T254 293Q254 201 306 154T460 106Q537 106 608 138ZM616 1345T583 1355T495 1389Q454 1408 425 1417T366 1427Q317 1427 278 1409T201
1351V1467Q263 1534 368 1534Q406 1534 439 1524T527 1490Q568 1471 597 1462T656 1452Q704 1452 743 1470T821 1528V1412Q757 1345 654 1345Q616 1345 583 1355Z" />
<glyph unicode="&#xe4;" glyph-name="adieresis" horiz-adv-x="1029" d="M616 1102T707 1065T844 942T890 711V0H756L744 121H733Q681 55 599 19T420 -18Q319 -18 245 17T132 120T92 278Q92 422 186 500T485 599L733 626V719Q733 816 703 871T612 948T453 971Q386
971 310 959T160 922V1054Q227 1077 312 1089T474 1102Q616 1102 707 1065ZM537 106T608 138T733 238V518L496 492Q369 479 312 430T254 293Q254 201 306 154T460 106Q537 106 608 138ZM246 1322T219 1348T191 1421Q191 1467 218 1494T294 1521Q341 1521 368 1494T396
1421Q396 1375 369 1349T294 1322Q246 1322 219 1348ZM681 1322T654 1348T626 1421Q626 1467 653 1494T728 1521Q776 1521 803 1494T831 1421Q831 1375 804 1349T728 1322Q681 1322 654 1348Z" />
<glyph unicode="&#xe5;" glyph-name="aring" horiz-adv-x="1029" d="M616 1102T707 1065T844 942T890 711V0H756L744 121H733Q681 55 599 19T420 -18Q319 -18 245 17T132 120T92 278Q92 422 186 500T485 599L733 626V719Q733 816 703 871T612 948T453 971Q386
971 310 959T160 922V1054Q227 1077 312 1089T474 1102Q616 1102 707 1065ZM537 106T608 138T733 238V518L496 492Q369 479 312 430T254 293Q254 201 306 154T460 106Q537 106 608 138ZM455 1248T411 1273T341 1342T315 1441Q315 1496 340 1540T410 1610T511 1635Q567
1635 611 1610T681 1541T706 1441Q706 1386 681 1342T612 1273T511 1248Q455 1248 411 1273ZM563 1322T595 1354T627 1441Q627 1496 595 1528T511 1560Q459 1560 427 1528T394 1441Q394 1387 426 1355T511 1322Q563 1322 595 1354Z" />
<glyph unicode="&#xe6;" glyph-name="ae" horiz-adv-x="1655" d="M1577 489H890Q894 352 935 270T1054 150T1255 112Q1374 112 1523 156V25Q1377 -19 1237 -19Q1086 -19 981 28T816 173Q732 70 637 26T432 -18Q327 -18 250 17T133 119T92 278Q92 427 193 513T510
599H734V720Q734 817 703 871T611 948T453 971Q386 971 310 959T161 922V1054Q230 1077 311 1089T469 1102Q613 1102 703 1059T834 921Q886 1012 970 1057T1166 1102Q1363 1102 1470 963T1577 541V489ZM1031 986T963 896T890 599H1423Q1419 807 1353 896T1160 986Q1031
986 963 896ZM550 106T628 146T768 279Q739 377 735 492H518Q254 492 254 292Q254 201 307 154T463 106Q550 106 628 146Z" />
<glyph unicode="&#xe7;" glyph-name="ccedilla" horiz-adv-x="875" d="M504 965T423 924T301 791T260 546Q260 391 297 297T409 160T597 117Q702 117 837 162V26Q710 -19 574 -19H568V-104Q644 -113 683 -153T723 -259Q723 -333 670 -374T518 -416Q473 -416 428
-407T349 -381V-300Q424 -337 515 -337Q572 -337 599 -317T627 -254Q627 -168 513 -168H476V-13Q288 13 191 149T94 542Q94 831 225 966T614 1102Q735 1102 837 1074V938Q730 965 632 965Q504 965 423 924Z" />
<glyph unicode="&#xe8;" glyph-name="egrave" horiz-adv-x="1030" d="M951 489H256Q260 352 301 269T423 149T627 112Q745 112 897 156V25Q749 -19 608 -19Q349 -19 222 115T94 543Q94 822 209 962T533 1102Q736 1102 843 963T951 539V489ZM400 985T330 895T256
599H797Q793 806 727 895T531 985Q400 985 330 895ZM457 1253L216 1616H389L605 1253H457Z" />
<glyph unicode="&#xe9;" glyph-name="eacute" horiz-adv-x="1030" d="M951 489H256Q260 352 301 269T423 149T627 112Q745 112 897 156V25Q749 -19 608 -19Q349 -19 222 115T94 543Q94 822 209 962T533 1102Q736 1102 843 963T951 539V489ZM400 985T330 895T256
599H797Q793 806 727 895T531 985Q400 985 330 895ZM457 1253L673 1616H846L605 1253H457Z" />
<glyph unicode="&#xea;" glyph-name="ecircumflex" horiz-adv-x="1030" d="M951 489H256Q260 352 301 269T423 149T627 112Q745 112 897 156V25Q749 -19 608 -19Q349 -19 222 115T94 543Q94 822 209 962T533 1102Q736 1102 843 963T951 539V489ZM400 985T330 895T256
599H797Q793 806 727 895T531 985Q400 985 330 895ZM826 1253H698L531 1533L364 1253H235L459 1616H603L826 1253Z" />
<glyph unicode="&#xeb;" glyph-name="edieresis" horiz-adv-x="1030" d="M951 489H256Q260 352 301 269T423 149T627 112Q745 112 897 156V25Q749 -19 608 -19Q349 -19 222 115T94 543Q94 822 209 962T533 1102Q736 1102 843 963T951 539V489ZM400 985T330 895T256
599H797Q793 806 727 895T531 985Q400 985 330 895ZM266 1322T239 1348T211 1421Q211 1467 238 1494T314 1521Q361 1521 388 1494T416 1421Q416 1375 389 1349T314 1322Q266 1322 239 1348ZM701 1322T674 1348T646 1421Q646 1467 673 1494T748 1521Q796 1521 823
1494T851 1421Q851 1375 824 1349T748 1322Q701 1322 674 1348Z" />
<glyph unicode="&#xec;" glyph-name="igrave" horiz-adv-x="463" d="M151 0V1085H311V0H151ZM157 1253L-84 1616H89L305 1253H157Z" />
<glyph unicode="&#xed;" glyph-name="iacute" horiz-adv-x="463" d="M151 0V1085H311V0H151ZM157 1253L373 1616H546L305 1253H157Z" />
<glyph unicode="&#xee;" glyph-name="icircumflex" horiz-adv-x="463" d="M151 0V1085H311V0H151ZM526 1253H398L231 1533L64 1253H-65L159 1616H303L526 1253Z" />
<glyph unicode="&#xef;" glyph-name="idieresis" horiz-adv-x="463" d="M151 0V1085H311V0H151ZM-34 1322T-61 1348T-89 1421Q-89 1467 -62 1494T14 1521Q61 1521 88 1494T116 1421Q116 1375 89 1349T14 1322Q-34 1322 -61 1348ZM401 1322T374 1348T346 1421Q346
1467 373 1494T448 1521Q496 1521 523 1494T551 1421Q551 1375 524 1349T448 1322Q401 1322 374 1348Z" />
<glyph unicode="&#xf0;" glyph-name="eth" horiz-adv-x="1111" d="M890 1157T953 964T1016 583Q1016 277 896 129T557 -20Q337 -20 216 117T94 541Q94 825 213 962T545 1099Q680 1099 772 1029Q717 1169 626 1296L204 1224L186 1324L554 1387Q447 1511 307 1616H505Q618
1532 712 1414L973 1458L992 1358L779 1322Q890 1157 953 964ZM699 111T776 212T853 538Q853 773 777 872T555 971Q409 971 333 873T257 543Q257 309 333 210T557 111Q699 111 776 212Z" />
<glyph unicode="&#xf1;" glyph-name="ntilde" horiz-adv-x="1137" d="M151 1085H286L297 962H308Q375 1030 462 1066T649 1102Q812 1102 904 1011T997 717V0H837V710Q837 843 779 901T610 959Q529 959 448 924T311 815V0H151V1085ZM680 1345T647 1355T559 1389Q518
1408 489 1417T430 1427Q381 1427 342 1409T265 1351V1467Q327 1534 432 1534Q470 1534 503 1524T591 1490Q632 1471 661 1462T720 1452Q768 1452 807 1470T885 1528V1412Q821 1345 718 1345Q680 1345 647 1355Z" />
<glyph unicode="&#xf2;" glyph-name="ograve" horiz-adv-x="1111" d="M337 -19T216 118T94 541Q94 826 215 964T555 1102Q775 1102 896 965T1017 542Q1017 258 895 120T555 -19Q337 -19 216 118ZM701 111T777 209T853 539Q853 774 777 872T555 971Q410 971 334
873T257 544Q257 310 333 211T555 111Q701 111 777 209ZM481 1253L240 1616H413L629 1253H481Z" />
<glyph unicode="&#xf3;" glyph-name="oacute" horiz-adv-x="1111" d="M337 -19T216 118T94 541Q94 826 215 964T555 1102Q775 1102 896 965T1017 542Q1017 258 895 120T555 -19Q337 -19 216 118ZM701 111T777 209T853 539Q853 774 777 872T555 971Q410 971 334
873T257 544Q257 310 333 211T555 111Q701 111 777 209ZM481 1253L697 1616H870L629 1253H481Z" />
<glyph unicode="&#xf4;" glyph-name="ocircumflex" horiz-adv-x="1111" d="M337 -19T216 118T94 541Q94 826 215 964T555 1102Q775 1102 896 965T1017 542Q1017 258 895 120T555 -19Q337 -19 216 118ZM701 111T777 209T853 539Q853 774 777 872T555 971Q410 971
334 873T257 544Q257 310 333 211T555 111Q701 111 777 209ZM850 1253H722L555 1533L388 1253H259L483 1616H627L850 1253Z" />
<glyph unicode="&#xf5;" glyph-name="otilde" horiz-adv-x="1111" d="M337 -19T216 118T94 541Q94 826 215 964T555 1102Q775 1102 896 965T1017 542Q1017 258 895 120T555 -19Q337 -19 216 118ZM701 111T777 209T853 539Q853 774 777 872T555 971Q410 971 334
873T257 544Q257 310 333 211T555 111Q701 111 777 209ZM660 1345T627 1355T539 1389Q498 1408 469 1417T410 1427Q361 1427 322 1409T245 1351V1467Q307 1534 412 1534Q450 1534 483 1524T571 1490Q612 1471 641 1462T700 1452Q748 1452 787 1470T865 1528V1412Q801
1345 698 1345Q660 1345 627 1355Z" />
<glyph unicode="&#xf6;" glyph-name="odieresis" horiz-adv-x="1111" d="M337 -19T216 118T94 541Q94 826 215 964T555 1102Q775 1102 896 965T1017 542Q1017 258 895 120T555 -19Q337 -19 216 118ZM701 111T777 209T853 539Q853 774 777 872T555 971Q410 971
334 873T257 544Q257 310 333 211T555 111Q701 111 777 209ZM290 1322T263 1348T235 1421Q235 1467 262 1494T338 1521Q385 1521 412 1494T440 1421Q440 1375 413 1349T338 1322Q290 1322 263 1348ZM725 1322T698 1348T670 1421Q670 1467 697 1494T772 1521Q820
1521 847 1494T875 1421Q875 1375 848 1349T772 1322Q725 1322 698 1348Z" />
<glyph unicode="&#xf7;" glyph-name="divide" horiz-adv-x="1075" d="M489 1011T459 1039T429 1115Q429 1163 459 1192T538 1221Q587 1221 616 1192T646 1115Q646 1068 616 1040T538 1011Q489 1011 459 1039ZM149 695V825H926V695H149ZM489 299T459 327T429 403Q429
451 459 480T538 509Q587 509 616 480T646 403Q646 356 616 328T538 299Q489 299 459 327Z" />
<glyph unicode="&#xf8;" glyph-name="oslash" horiz-adv-x="1111" d="M1017 810T1017 542Q1017 258 895 120T555 -19Q383 -19 274 64L206 -31L126 27L203 135Q94 277 94 541Q94 826 215 964T555 1102Q725 1102 835 1022L903 1116L983 1058L907 951Q1017 810 1017
542ZM408 973T331 875T254 544Q254 364 300 263L756 902Q685 973 555 973Q408 973 331 875ZM703 110T780 208T857 539Q857 719 809 823L353 183Q425 110 555 110Q703 110 780 208Z" />
<glyph unicode="&#xf9;" glyph-name="ugrave" horiz-adv-x="1127" d="M324 -18T232 73T139 364V1085H299V372Q299 240 357 183T521 125Q601 125 681 161T816 269V1085H976V0H841L829 119H819Q752 51 667 17T485 -18Q324 -18 232 73ZM484 1253L243 1616H416L632 1253H484Z" />
<glyph unicode="&#xfa;" glyph-name="uacute" horiz-adv-x="1127" d="M324 -18T232 73T139 364V1085H299V372Q299 240 357 183T521 125Q601 125 681 161T816 269V1085H976V0H841L829 119H819Q752 51 667 17T485 -18Q324 -18 232 73ZM484 1253L700 1616H873L632 1253H484Z" />
<glyph unicode="&#xfb;" glyph-name="ucircumflex" horiz-adv-x="1127" d="M324 -18T232 73T139 364V1085H299V372Q299 240 357 183T521 125Q601 125 681 161T816 269V1085H976V0H841L829 119H819Q752 51 667 17T485 -18Q324 -18 232 73ZM853 1253H725L558 1533L391
1253H262L486 1616H630L853 1253Z" />
<glyph unicode="&#xfc;" glyph-name="udieresis" horiz-adv-x="1127" d="M324 -18T232 73T139 364V1085H299V372Q299 240 357 183T521 125Q601 125 681 161T816 269V1085H976V0H841L829 119H819Q752 51 667 17T485 -18Q324 -18 232 73ZM293 1322T266 1348T238
1421Q238 1467 265 1494T341 1521Q388 1521 415 1494T443 1421Q443 1375 416 1349T341 1322Q293 1322 266 1348ZM728 1322T701 1348T673 1421Q673 1467 700 1494T775 1521Q823 1521 850 1494T878 1421Q878 1375 851 1349T775 1322Q728 1322 701 1348Z" />
<glyph unicode="&#xfd;" glyph-name="yacute" horiz-adv-x="1057" d="M880 1085H1041L465 -440H305L472 0H425L16 1085H186L530 134L880 1085ZM456 1253L672 1616H845L604 1253H456Z" />
<glyph unicode="&#xfe;" glyph-name="thorn" horiz-adv-x="1129" d="M151 1616H311V971H321Q373 1032 449 1067T621 1102Q740 1102 833 1048T980 873T1035 563Q1035 271 897 126T487 -19Q415 -19 311 -5V-440H151V1616ZM683 112T777 215T872 548Q872 776 793 870T573
964Q496 964 427 931T311 833V131Q349 123 397 118T490 112Q683 112 777 215Z" />
<glyph unicode="&#xff;" glyph-name="ydieresis" horiz-adv-x="1057" d="M880 1085H1041L465 -440H305L472 0H425L16 1085H186L530 134L880 1085ZM265 1322T238 1348T210 1421Q210 1467 237 1494T313 1521Q360 1521 387 1494T415 1421Q415 1375 388 1349T313 1322Q265
1322 238 1348ZM700 1322T673 1348T645 1421Q645 1467 672 1494T747 1521Q795 1521 822 1494T850 1421Q850 1375 823 1349T747 1322Q700 1322 673 1348Z" />
<glyph unicode="&#x2013;" glyph-name="endash" horiz-adv-x="900" d="M0 502V624H900V502H0Z" />
<glyph unicode="&#x2014;" glyph-name="emdash" horiz-adv-x="1800" d="M0 502V624H1800V502H0Z" />
<glyph unicode="&#x2018;" glyph-name="quoteleft" horiz-adv-x="461" d="M286 1311T316 1281T346 1201Q346 1150 316 1120T236 1090Q116 1090 116 1236Q116 1336 143 1433T216 1616H311Q277 1527 259 1455T237 1313Q286 1311 316 1281Z" />
<glyph unicode="&#x2019;" glyph-name="quoteright" horiz-adv-x="461" d="M284 1629T314 1593T345 1483Q345 1383 318 1285T245 1103H150Q184 1192 202 1264T224 1406Q175 1408 145 1438T115 1518Q115 1569 145 1599T227 1629Q284 1629 314 1593Z" />
<glyph unicode="&#x201a;" glyph-name="quotesinglbase" horiz-adv-x="461" d="M284 210T314 174T345 64Q345 -35 318 -133T245 -316H150Q184 -226 202 -154T224 -13Q175 -11 145 19T115 99Q115 150 145 180T227 210Q284 210 314 174Z" />
<glyph unicode="&#x201c;" glyph-name="quotedblleft" horiz-adv-x="818" d="M286 1311T316 1281T346 1201Q346 1150 316 1120T236 1090Q116 1090 116 1236Q116 1336 143 1433T216 1616H311Q277 1527 259 1455T237 1313Q286 1311 316 1281ZM644 1311T674 1281T704
1201Q704 1150 674 1120T594 1090Q474 1090 474 1236Q474 1336 501 1433T574 1616H669Q635 1527 617 1455T595 1313Q644 1311 674 1281Z" />
<glyph unicode="&#x201d;" glyph-name="quotedblright" horiz-adv-x="818" d="M284 1629T314 1593T345 1483Q345 1383 318 1285T245 1103H150Q184 1192 202 1264T224 1406Q175 1408 145 1438T115 1518Q115 1569 145 1599T227 1629Q284 1629 314 1593ZM642 1629T672
1593T703 1483Q703 1383 676 1285T603 1103H508Q542 1192 560 1264T582 1406Q533 1408 503 1438T473 1518Q473 1569 503 1599T585 1629Q642 1629 672 1593Z" />
<glyph unicode="&#x201e;" glyph-name="quotedblbase" horiz-adv-x="818" d="M284 210T314 174T345 64Q345 -35 318 -133T245 -316H150Q184 -226 202 -154T224 -13Q175 -11 145 19T115 99Q115 150 145 180T227 210Q284 210 314 174ZM642 210T672 174T703 64Q703
-35 676 -133T603 -316H508Q542 -226 560 -154T582 -13Q533 -11 503 19T473 99Q473 150 503 180T585 210Q642 210 672 174Z" />
<glyph unicode="&#x2022;" glyph-name="bullet" horiz-adv-x="711" d="M289 320T234 351T147 437T115 560Q115 629 147 683T234 769T356 800Q422 800 477 769T564 684T596 560Q596 492 564 437T477 351T356 320Q289 320 234 351Z" />
<glyph unicode="&#x2039;" glyph-name="guilsinglleft" horiz-adv-x="604" d="M367 137L112 563L367 988H532L278 563L532 137H367Z" />
<glyph unicode="&#x203a;" glyph-name="guilsinglright" horiz-adv-x="604" d="M72 137L327 563L72 988H238L492 563L238 137H72Z" />
</font>
</defs>
</svg>
