<?xml version="1.0" standalone="no"?>
<!DOCTYPE svg PUBLIC "-//W3C//DTD SVG 1.1//EN" "http://www.w3.org/Graphics/SVG/1.1/DTD/svg11.dtd">
<svg xmlns="http://www.w3.org/2000/svg">
<defs >
<font id="EncodeSans" horiz-adv-x="1213" ><font-face
    font-family="Encode Sans"
    units-per-em="2000"
    panose-1="0 0 8 0 0 0 0 0 0 0"
    ascent="2060"
    descent="-440"
    alphabetic="0" />
<glyph unicode=" " glyph-name="space" horiz-adv-x="503" />
<glyph unicode="!" glyph-name="exclam" horiz-adv-x="597" d="M203 468L129 964V1480H469V964L398 468H203ZM204 -17T148 33T91 167Q91 252 147 302T299 352Q394 352 450 302T506 167Q506 112 481 71T408 6T299 -17Q204 -17 148 33Z" />
<glyph unicode="&quot;" glyph-name="quotedbl" horiz-adv-x="912" d="M141 845L81 1616H396L336 845H141ZM576 845L516 1616H831L771 845H576Z" />
<glyph unicode="#" glyph-name="numbersign" horiz-adv-x="1255" d="M1155 846H972L950 634H1155V392H925L884 0H638L679 392H504L463 0H217L258 392H100V634H283L305 846H100V1088H330L371 1480H617L576 1088H751L792 1480H1038L997 1088H1155V846ZM704 634L726
846H551L529 634H704Z" />
<glyph unicode="$" glyph-name="dollar" horiz-adv-x="1154" d="M1099 272T1003 161T728 6V-240H427V-17Q340 -13 253 1T90 40V305Q182 276 292 260T492 243Q643 243 708 286T774 415Q774 462 755 493T689 548T560 594L449 623Q251 672 153 776T55 1049Q55 1214
148 1323T427 1474V1720H728V1498Q895 1493 1023 1459V1195Q953 1214 867 1225T702 1237Q528 1237 454 1193T380 1066Q380 1021 397 991T454 939T568 897L680 869Q896 815 997 711T1099 437Q1099 272 1003 161Z" />
<glyph unicode="%" glyph-name="percent" horiz-adv-x="2098" d="M364 570T274 621T134 777T84 1034Q84 1188 134 1292T274 1447T485 1499Q607 1499 697 1448T837 1292T887 1034Q887 881 837 777T697 622T485 570Q364 570 274 621ZM587 0L1249 1480H1511L849 0H587ZM556
770T596 831T636 1034Q636 1176 596 1237T485 1299Q335 1299 335 1035Q335 770 485 770Q556 770 596 831ZM1491 -18T1401 33T1261 189T1211 447Q1211 600 1261 704T1401 860T1612 912Q1734 912 1824 861T1964 705T2014 447Q2014 293 1964 189T1824 34T1612 -18Q1491
-18 1401 33ZM1683 182T1722 243T1762 446Q1762 588 1723 649T1612 711Q1462 711 1462 447Q1462 182 1612 182Q1683 182 1722 243Z" />
<glyph unicode="&amp;" glyph-name="ampersand" horiz-adv-x="1602" d="M1455 -20L1197 153Q1111 68 984 25T694 -18Q503 -18 371 34T172 181T105 405Q105 530 168 626T339 775Q287 840 265 905T242 1045Q242 1262 398 1380T863 1499Q997 1499 1125 1476V1211Q1010
1237 886 1237Q714 1237 641 1187T567 1038Q567 974 602 923T728 805L1104 552Q1106 588 1106 608Q1106 667 1097 734T1070 863H1328Q1361 739 1361 611Q1361 495 1335 397L1602 217L1455 -20ZM898 211T992 291L580 568Q555 584 500 624Q428 549 428 440Q428 332
506 272T731 211Q898 211 992 291Z" />
<glyph unicode="&apos;" glyph-name="quotesingle" horiz-adv-x="477" d="M141 845L81 1616H396L336 845H141Z" />
<glyph unicode="(" glyph-name="parenleft" horiz-adv-x="716" d="M103 -49T103 588Q103 1225 447 1616H782Q599 1391 515 1140T431 588Q431 287 515 36T782 -440H447Q103 -49 103 588Z" />
<glyph unicode=")" glyph-name="parenright" horiz-adv-x="716" d="M117 -215T200 36T284 588Q284 889 201 1140T-66 1616H269Q612 1227 612 588Q612 -51 269 -440H-66Q117 -215 200 36Z" />
<glyph unicode="*" glyph-name="asterisk" horiz-adv-x="1006" d="M622 1139L761 1007L853 879L681 755L589 881L503 1065L417 881L325 755L153 879L245 1007L384 1139L197 1164L30 1218L96 1419L262 1365L433 1271L397 1463V1616H609V1463L573 1271L744 1365L910
1419L976 1218L809 1164L622 1139Z" />
<glyph unicode="+" glyph-name="plus" horiz-adv-x="1101" d="M423 318V638H117V882H423V1202H678V882H984V638H678V318H423Z" />
<glyph unicode="," glyph-name="comma" horiz-adv-x="557" d="M377 371T431 308T485 119Q485 -1 443 -122T328 -342H145Q190 -245 215 -167T246 -15Q166 -6 119 45T71 177Q71 267 125 319T274 371Q377 371 431 308Z" />
<glyph unicode="-" glyph-name="hyphen" horiz-adv-x="911" d="M117 437V697H794V437H117Z" />
<glyph unicode="." glyph-name="period" horiz-adv-x="557" d="M184 -17T128 35T71 177Q71 266 127 318T279 371Q374 371 430 318T486 177Q486 89 430 36T279 -17Q184 -17 128 35Z" />
<glyph unicode="/" glyph-name="slash" horiz-adv-x="790" d="M0 -240L474 1616H790L316 -240H0Z" />
<glyph unicode="0" glyph-name="zero" horiz-adv-x="1338" d="M392 -19T243 167T93 740Q93 1127 242 1313T669 1499Q946 1499 1095 1313T1245 740Q1245 354 1095 168T669 -19Q392 -19 243 167ZM753 248T809 294T894 448T924 739Q924 923 895 1031T809 1186T669
1232Q585 1232 529 1186T444 1032T414 741Q414 556 443 448T528 294T669 248Q753 248 809 294Z" />
<glyph unicode="1" glyph-name="one" horiz-adv-x="833" d="M479 1485H690V0H363V1099L28 866V1171L479 1485Z" />
<glyph unicode="2" glyph-name="two" horiz-adv-x="1074" d="M1021 269V0H48V175L458 686Q551 803 590 885T629 1040Q629 1142 565 1189T358 1237Q272 1237 186 1222T29 1179V1444Q98 1468 199 1483T392 1499Q672 1499 811 1396T951 1072Q950 955 902 842T739
589L477 269H1021Z" />
<glyph unicode="3" glyph-name="three" horiz-adv-x="1088" d="M873 735T950 645T1027 411Q1027 206 877 94T430 -19Q224 -19 43 32V275Q129 251 228 237T416 223Q573 223 646 275T720 431Q720 532 649 583T416 634H200V880H368Q523 880 595 929T667 1074Q667
1165 603 1211T403 1257Q319 1257 231 1243T69 1201V1445Q141 1469 242 1484T438 1499Q705 1499 842 1397T979 1102Q979 978 913 890T728 765Q873 735 950 645Z" />
<glyph unicode="4" glyph-name="four" horiz-adv-x="1273" d="M1241 556V304H1050V0H757V304H37V482L552 1480H865L394 556H757L789 980H1050V556H1241Z" />
<glyph unicode="5" glyph-name="five" horiz-adv-x="1101" d="M655 883T791 829T990 680T1053 441Q1052 215 901 98T456 -19Q256 -19 70 36V279Q155 255 254 241T443 226Q599 226 672 278T745 434Q745 506 707 551T574 622T306 658L116 669L168 1480H993V1230H458L435
896Q655 883 791 829Z" />
<glyph unicode="6" glyph-name="six" horiz-adv-x="1251" d="M864 890T970 842T1136 694T1197 444Q1197 301 1134 197T955 37T681 -19Q410 -19 257 154T103 692Q103 1095 287 1297T819 1499Q1002 1499 1121 1454V1205Q994 1251 835 1251Q631 1251 529 1143T420
807Q480 846 560 868T725 890Q864 890 970 842ZM783 215T842 270T902 435Q902 547 839 601T661 656Q597 656 535 638T421 584Q427 445 460 364T548 249T683 215Q783 215 842 270Z" />
<glyph unicode="7" glyph-name="seven" horiz-adv-x="1024" d="M11 1480H966V1305L490 0H155L620 1211H11V1480Z" />
<glyph unicode="8" glyph-name="eight" horiz-adv-x="1338" d="M1132 714T1193 625T1255 406Q1255 282 1190 186T993 36T673 -19Q474 -19 341 29T144 165T80 369Q80 488 148 580T346 727Q227 793 174 882T121 1088Q121 1211 185 1304T377 1448T687 1499Q852 1499
970 1454T1151 1325T1214 1125Q1214 1016 1159 928T986 780Q1132 714 1193 625ZM557 1275T493 1228T429 1100Q429 1041 456 1001T556 927T768 855Q855 903 893 960T932 1093Q932 1181 869 1228T683 1275Q557 1275 493 1228ZM814 205T883 252T952 387Q952 447 923
488T820 562T613 628Q578 637 555 644Q471 604 428 542T385 406Q385 308 457 257T674 205Q814 205 883 252Z" />
<glyph unicode="9" glyph-name="nine" horiz-adv-x="1251" d="M841 1499T994 1326T1148 788Q1148 385 964 183T432 -19Q249 -19 130 26V275Q256 229 416 229Q620 229 722 337T831 673Q771 634 691 612T526 590Q387 590 281 638T115 786T54 1036Q54 1179 117 1283T296
1443T570 1499Q841 1499 994 1326ZM349 933T412 879T590 824Q654 824 716 842T830 896Q824 1035 791 1116T703 1231T568 1265Q468 1265 409 1210T349 1045Q349 933 412 879Z" />
<glyph unicode=":" glyph-name="colon" horiz-adv-x="557" d="M184 -17T128 35T71 177Q71 266 127 318T279 371Q374 371 430 318T486 177Q486 89 430 36T279 -17Q184 -17 128 35ZM184 723T128 775T71 917Q71 1006 127 1058T279 1111Q374 1111 430 1058T486 917Q486
829 430 776T279 723Q184 723 128 775Z" />
<glyph unicode=";" glyph-name="semicolon" horiz-adv-x="557" d="M377 371T431 308T485 119Q485 -1 443 -122T328 -342H145Q190 -245 215 -167T246 -15Q166 -6 119 45T71 177Q71 267 125 319T274 371Q377 371 431 308ZM184 723T128 775T71 917Q71 1006 127 1058T279
1111Q374 1111 430 1058T486 917Q486 829 430 776T279 723Q184 723 128 775Z" />
<glyph unicode="&lt;" glyph-name="less" horiz-adv-x="1101" d="M984 1241V994L345 762L984 526V279L117 609V911L984 1241Z" />
<glyph unicode="=" glyph-name="equal" horiz-adv-x="1101" d="M117 861V1105H984V861H117ZM117 415V659H984V415H117Z" />
<glyph unicode="&gt;" glyph-name="greater" horiz-adv-x="1101" d="M117 1241L984 911V609L117 279V526L756 762L117 994V1241Z" />
<glyph unicode="?" glyph-name="question" horiz-adv-x="993" d="M291 831Q421 857 495 891T599 970T630 1072Q630 1160 566 1204T364 1249Q281 1249 194 1235T32 1194V1445Q104 1469 205 1484T401 1499Q668 1499 805 1396T942 1099Q942 942 847 839T565 678L542
463H346L291 831ZM350 -17T294 33T237 167Q237 252 292 302T444 352Q540 352 596 302T652 167Q652 84 596 34T444 -17Q350 -17 294 33Z" />
<glyph unicode="@" glyph-name="at" horiz-adv-x="2090" d="M1517 1498T1761 1268T2006 580Q2006 267 1886 124T1552 -20Q1328 -20 1241 130H1223Q1187 53 1111 17T936 -20Q825 -20 745 19T623 129T580 297Q580 453 689 538T1033 640L1214 656V661Q1214 734 1190
776T1114 836T973 855Q906 855 827 842T679 803L680 1043Q757 1069 850 1083T1029 1097Q1204 1097 1312 1054T1473 912T1526 647V308Q1526 245 1550 216T1624 187Q1699 187 1741 269T1783 559Q1783 821 1705 982T1466 1217T1053 1291Q802 1291 642 1215T403 969T324
521Q324 239 405 70T653 -176T1091 -253Q1319 -253 1545 -198V-405Q1325 -460 1091 -460Q595 -460 339 -220T83 520Q83 1017 333 1257T1053 1498Q1517 1498 1761 1268ZM1086 205T1134 222T1214 274V481L1064 468Q977 460 937 427T896 330Q896 267 934 236T1041
205Q1086 205 1134 222Z" />
<glyph unicode="A" glyph-name="A" horiz-adv-x="1460" d="M1125 0L1003 395H454L332 0H14L492 1480H968L1446 0H1125ZM533 654H923L728 1285L533 654Z" />
<glyph unicode="B" glyph-name="B" horiz-adv-x="1333" d="M1134 736T1207 648T1280 415Q1280 273 1208 178T974 33T550 -17Q456 -17 342 -9T133 12V1447Q238 1470 364 1484T608 1498Q936 1498 1087 1397T1239 1086Q1239 968 1177 882T1003 764Q1134 736 1207
648ZM549 1261T452 1243V878H662Q808 878 870 924T933 1069Q933 1137 905 1179T815 1241T649 1261Q549 1261 452 1243ZM765 221T839 243T946 311T978 428Q978 536 912 585T694 634H452V229Q527 221 636 221Q765 221 839 243Z" />
<glyph unicode="C" glyph-name="C" horiz-adv-x="1238" d="M477 -19T280 164T83 737Q83 1115 286 1307T873 1499Q1044 1499 1190 1464V1196Q1045 1230 898 1230Q736 1230 632 1180T477 1023T425 741Q425 563 476 455T628 299T887 250Q1029 250 1190 297V28Q1118
6 1032 -6T857 -19Q477 -19 280 164Z" />
<glyph unicode="D" glyph-name="D" horiz-adv-x="1501" d="M326 -15T133 9V1447Q237 1470 361 1483T603 1496Q1010 1496 1214 1311T1418 740Q1418 476 1321 309T1030 64T538 -15Q326 -15 133 9ZM781 250T882 299T1033 456T1083 741Q1083 916 1033 1024T881 1183T625
1233Q546 1233 459 1218V257Q523 250 623 250Q781 250 882 299Z" />
<glyph unicode="E" glyph-name="E" horiz-adv-x="1255" d="M455 260H1184V0H133V1480H1174V1220H455V887H1072V627H455V260Z" />
<glyph unicode="F" glyph-name="F" horiz-adv-x="1214" d="M1171 1215H459V855H1069V590H459V0H133V1480H1171V1215Z" />
<glyph unicode="G" glyph-name="G" horiz-adv-x="1426" d="M1299 720V16Q1099 -17 930 -17Q505 -17 295 168T83 736Q83 1115 298 1307T924 1499Q1099 1499 1257 1462V1194Q1101 1230 953 1230Q769 1229 653 1179T481 1020T424 732Q424 482 542 367T905 251Q936
251 996 253V720H1299Z" />
<glyph unicode="H" glyph-name="H" horiz-adv-x="1527" d="M133 0V1480H459V900H1068V1480H1394V0H1068V613H459V0H133Z" />
<glyph unicode="I" glyph-name="I" horiz-adv-x="592" d="M133 0V1480H459V0H133Z" />
<glyph unicode="J" glyph-name="J" horiz-adv-x="592" d="M-22 -211Q64 -96 99 19T134 299V1480H459V300Q457 111 395 -42T186 -350L-22 -211Z" />
<glyph unicode="K" glyph-name="K" horiz-adv-x="1330" d="M1022 0L601 613H459V0H133V1480H459V900H602L990 1480H1334L855 764L1377 0H1022Z" />
<glyph unicode="L" glyph-name="L" horiz-adv-x="1149" d="M133 0V1480H459V271H1139V0H133Z" />
<glyph unicode="M" glyph-name="M" horiz-adv-x="1879" d="M1345 1480H1742V0H1437V1047L1074 214H805L442 1020V0H137V1480H534L945 548L1345 1480Z" />
<glyph unicode="N" glyph-name="N" horiz-adv-x="1544" d="M1104 1480H1411V0H1083L440 991V0H133V1480H461L1104 489V1480Z" />
<glyph unicode="O" glyph-name="O" horiz-adv-x="1563" d="M567 -19T411 64T169 318T83 740Q83 992 168 1162T410 1415T782 1499Q997 1499 1153 1415T1395 1161T1480 740Q1480 489 1395 319T1153 65T782 -19Q567 -19 411 64ZM959 244T1052 361T1145 733Q1145 997
1052 1116T782 1236Q605 1236 512 1119T418 747Q418 482 511 363T782 244Q959 244 1052 361Z" />
<glyph unicode="P" glyph-name="P" horiz-adv-x="1318" d="M133 1454Q360 1498 581 1498Q915 1498 1079 1368T1244 963Q1244 699 1082 564T602 429Q557 429 459 433V0H133V1454ZM773 673T850 741T927 961Q927 1114 850 1184T611 1254Q529 1254 459 1242V682Q532
673 605 673Q773 673 850 741Z" />
<glyph unicode="Q" glyph-name="Q" horiz-adv-x="1563" d="M1480 444T1358 259T996 25Q1208 -33 1461 -62L1407 -317Q903 -242 613 -103T203 240T83 733Q83 989 168 1160T410 1415T782 1499Q997 1499 1153 1416T1395 1162T1480 740Q1480 444 1358 259ZM418 481T510
363T782 244Q959 244 1052 361T1145 733Q1145 997 1052 1116T782 1236Q605 1236 512 1119T418 747Q418 481 510 363Z" />
<glyph unicode="R" glyph-name="R" horiz-adv-x="1378" d="M1005 0L627 543H609Q539 543 454 548V0H133V1447Q239 1470 359 1484T596 1498Q917 1498 1077 1382T1237 1023Q1237 865 1161 757T940 595L1360 0H1005ZM454 794Q538 785 615 785Q777 785 854 841T931
1022Q931 1145 858 1201T629 1258Q541 1258 454 1243V794Z" />
<glyph unicode="S" glyph-name="S" horiz-adv-x="1154" d="M396 -19T289 -3T90 44V308Q183 278 294 261T503 243Q646 243 710 286T774 415Q774 462 755 493T689 548T560 594L449 623Q251 672 153 776T55 1049Q55 1264 211 1381T672 1499Q769 1499 859 1488T1023
1456V1191Q952 1213 865 1225T690 1237Q524 1237 452 1193T380 1066Q380 1021 397 991T454 939T568 897L680 869Q896 815 997 711T1099 437Q1099 296 1028 193T824 36T504 -19Q396 -19 289 -3Z" />
<glyph unicode="T" glyph-name="T" horiz-adv-x="1287" d="M480 0V1209H13V1480H1273V1209H807V0H480Z" />
<glyph unicode="U" glyph-name="U" horiz-adv-x="1496" d="M429 -19T278 136T126 614V1480H453V582Q453 408 526 328T751 248Q903 248 976 328T1049 582V1480H1370V614Q1370 292 1220 137T751 -19Q429 -19 278 136Z" />
<glyph unicode="V" glyph-name="V" horiz-adv-x="1434" d="M1115 1480H1433L958 0H476L1 1480H342L726 247L1115 1480Z" />
<glyph unicode="W" glyph-name="W" horiz-adv-x="2282" d="M1943 1480H2252L1861 0H1442L1147 1122L840 0H422L30 1480H360L655 303L970 1480H1331L1638 289L1943 1480Z" />
<glyph unicode="X" glyph-name="X" horiz-adv-x="1376" d="M878 771L1405 0H1044L684 533L324 0H-32L495 767L3 1480H366L688 1006L1011 1480H1363L878 771Z" />
<glyph unicode="Y" glyph-name="Y" horiz-adv-x="1287" d="M1327 1480L808 626V0H482V625L-52 1480H294L652 901L1005 1480H1327Z" />
<glyph unicode="Z" glyph-name="Z" horiz-adv-x="1240" d="M481 270H1180V0H60V179L748 1210H71V1480H1170V1301L481 270Z" />
<glyph unicode="[" glyph-name="bracketleft" horiz-adv-x="716" d="M153 -440V1616H746V1364H473V-188H739V-440H153Z" />
<glyph unicode="\" glyph-name="backslash" horiz-adv-x="791" d="M475 -240L0 1616H316L791 -240H475Z" />
<glyph unicode="]" glyph-name="bracketright" horiz-adv-x="716" d="M-23 -440V-188H243V1364H-30V1616H563V-440H-23Z" />
<glyph unicode="^" glyph-name="asciicircum" horiz-adv-x="1255" d="M1191 740H879L628 1204L376 740H65L475 1480H779L1191 740Z" />
<glyph unicode="_" glyph-name="underscore" horiz-adv-x="1211" d="M88 -253V-1H1123V-253H88Z" />
<glyph unicode="`" glyph-name="grave" horiz-adv-x="1134" d="M420 1233L149 1616H489L713 1233H420Z" />
<glyph unicode="a" glyph-name="a" horiz-adv-x="1119" d="M683 1111T793 1067T956 923T1009 650V0H745L723 108H708Q660 43 585 12T418 -20Q308 -20 228 19T106 130T63 297Q63 454 172 540T518 641L696 656V670Q696 746 672 789T594 850T447 869Q380 869 301
858T150 825V1065Q228 1087 323 1099T504 1111Q683 1111 793 1067ZM570 202T615 218T696 271V476L550 465Q460 458 419 424T378 327Q378 266 415 234T523 202Q570 202 615 218Z" />
<glyph unicode="b" glyph-name="b" horiz-adv-x="1231" d="M433 -20T322 -5T119 41V1616H439V988H454Q502 1047 574 1079T737 1111Q856 1111 952 1053T1105 874T1162 569Q1162 278 1008 129T544 -20Q433 -20 322 -5ZM706 222T773 298T840 544Q840 713 783 781T616
850Q565 850 519 834T439 784V238Q499 222 568 222Q706 222 773 298Z" />
<glyph unicode="c" glyph-name="c" horiz-adv-x="963" d="M360 -21T215 120T69 545Q69 830 223 970T671 1111Q807 1111 916 1086V833Q811 854 715 854Q604 854 535 823T432 725T399 548Q399 383 470 310T688 237Q739 237 792 245T916 273V20Q790 -21 638 -21Q360
-21 215 120Z" />
<glyph unicode="d" glyph-name="d" horiz-adv-x="1231" d="M391 -19T290 38T129 216T69 524Q69 811 221 961T665 1112Q733 1112 792 1104V1616H1112V0H844L824 114H809Q761 52 687 17T518 -19Q391 -19 290 38ZM664 242T712 260T792 316V857Q734 869 666 869Q526
869 459 794T391 549Q391 380 448 311T612 242Q664 242 712 260Z" />
<glyph unicode="e" glyph-name="e" horiz-adv-x="1110" d="M1053 454H389Q394 366 426 316T528 243T716 220Q841 220 992 255V16Q832 -21 671 -21Q462 -21 330 38T133 223T69 548Q69 728 128 854T302 1046T578 1111Q810 1111 931 965T1053 538V454ZM483 909T437
847T388 639H755Q752 786 708 847T574 909Q483 909 437 847Z" />
<glyph unicode="f" glyph-name="f" horiz-adv-x="803" d="M627 1382T574 1336T521 1188V1094H808V842H521V0H203V842H25V1094H203V1173Q203 1319 259 1422T426 1581T694 1636Q776 1636 854 1624V1374Q801 1382 743 1382Q627 1382 574 1336Z" />
<glyph unicode="g" glyph-name="g" horiz-adv-x="1231" d="M314 -460T145 -415V-165Q322 -214 487 -214Q595 -214 662 -188T760 -106T792 44V117H777Q729 58 657 26T494 -7Q377 -7 281 51T127 228T69 525Q69 811 225 961T691 1111Q799 1111 912 1096T1112 1051V103Q1112
-94 1047 -218T849 -401T512 -460Q314 -460 145 -415ZM665 253T712 269T792 319V855Q732 869 663 869Q527 869 459 794T391 552Q391 387 448 320T615 253Q665 253 712 269Z" />
<glyph unicode="h" glyph-name="h" horiz-adv-x="1223" d="M119 1616H439V984H454Q510 1046 586 1078T755 1111Q917 1111 1015 1007T1113 681V0H793V660Q793 756 754 796T639 836Q583 836 529 813T439 746V0H119V1616Z" />
<glyph unicode="i" glyph-name="i" horiz-adv-x="558" d="M119 0V1094H439V0H119ZM180 1253T131 1296T81 1419Q81 1500 130 1543T279 1586Q378 1586 427 1543T476 1419Q476 1339 427 1296T279 1253Q180 1253 131 1296Z" />
<glyph unicode="j" glyph-name="j" horiz-adv-x="558" d="M-38 -334Q49 -218 84 -103T119 176V1094H439V189Q439 -5 377 -160T169 -471L-38 -334ZM176 1255T127 1298T77 1421Q77 1502 126 1545T275 1588Q374 1588 423 1545T472 1421Q472 1341 423 1298T275 1255Q176
1255 127 1298Z" />
<glyph unicode="k" glyph-name="k" horiz-adv-x="1181" d="M866 0L567 434H439V0H119V1616H439V690H565L838 1094H1179L831 568L1214 0H866Z" />
<glyph unicode="l" glyph-name="l" horiz-adv-x="557" d="M119 0V1616H439V0H119Z" />
<glyph unicode="m" glyph-name="m" horiz-adv-x="1806" d="M1500 1111T1598 1007T1696 680V0H1377V663Q1377 756 1340 796T1235 836Q1187 836 1142 818T1065 761Q1068 728 1068 690V0H755V663Q755 757 720 796T618 836Q567 836 519 813T439 745V0H119V1094H382L404
983H419Q536 1111 726 1111Q817 1111 888 1077T1004 969Q1072 1042 1157 1076T1332 1111Q1500 1111 1598 1007Z" />
<glyph unicode="n" glyph-name="n" horiz-adv-x="1223" d="M119 1094H382L404 983H419Q479 1045 561 1078T740 1111Q913 1111 1013 1007T1113 681V0H793V662Q793 757 754 796T639 836Q582 836 528 813T439 746V0H119V1094Z" />
<glyph unicode="o" glyph-name="o" horiz-adv-x="1206" d="M437 -21T318 42T134 231T69 544Q69 826 208 968T603 1111Q858 1111 997 968T1137 546Q1137 359 1073 232T889 42T603 -21Q437 -21 318 42ZM674 222T720 252T790 352T815 543Q815 665 791 737T720 839T603
869Q533 869 487 839T416 739T391 547Q391 425 415 354T486 252T603 222Q674 222 720 252Z" />
<glyph unicode="p" glyph-name="p" horiz-adv-x="1231" d="M119 1094H387L407 978H422Q470 1040 544 1075T713 1111Q840 1111 941 1055T1102 877T1162 568Q1162 281 1010 131T566 -20Q513 -20 439 -12V-440H119V1094ZM705 223T772 298T840 543Q840 713 783 781T619
850Q567 850 519 832T439 776V235Q497 223 565 223Q705 223 772 298Z" />
<glyph unicode="q" glyph-name="q" horiz-adv-x="1231" d="M792 103H777Q729 44 657 12T494 -20Q375 -20 279 38T126 217T69 522Q69 813 224 962T690 1111Q798 1111 911 1096T1112 1051V-440H792V103ZM665 242T712 258T792 308V855Q732 869 662 869Q527 869 459
793T391 547Q391 378 448 310T615 242Q665 242 712 258Z" />
<glyph unicode="r" glyph-name="r" horiz-adv-x="809" d="M119 1094H380L405 953H420Q465 1032 540 1070T710 1109Q758 1109 798 1101V812Q754 821 690 821Q617 821 547 793T439 716V0H119V1094Z" />
<glyph unicode="s" glyph-name="s" horiz-adv-x="980" d="M246 -21T90 27V261Q252 212 436 212Q540 212 586 239T633 320Q633 361 611 382T534 414L357 446Q204 474 133 551T62 761Q62 868 119 946T291 1068T578 1111Q656 1111 732 1102T871 1077V843Q738 879
587 879Q359 879 359 769Q359 733 381 711T457 679L634 647Q786 618 858 545T931 331Q931 222 874 143T706 22T441 -21Q246 -21 90 27Z" />
<glyph unicode="t" glyph-name="t" horiz-adv-x="843" d="M735 243T808 256V3Q707 -20 606 -20Q404 -20 300 80T195 390V842H17V1094H195L253 1480H515V1094H802V842H515V440Q515 366 533 323T590 262T693 243Q735 243 808 256Z" />
<glyph unicode="u" glyph-name="u" horiz-adv-x="1214" d="M313 -19T212 84T110 410V1094H430V431Q430 337 468 297T579 257Q632 257 686 280T776 346V1094H1096V0H832L810 110H797Q734 46 656 14T488 -19Q313 -19 212 84Z" />
<glyph unicode="v" glyph-name="v" horiz-adv-x="1167" d="M854 1094H1169L783 0H383L-1 1094H333L593 290L854 1094Z" />
<glyph unicode="w" glyph-name="w" horiz-adv-x="1813" d="M1479 1094H1770L1477 0H1123L910 791L692 0H338L44 1094H347L534 342L737 1094H1091L1288 353L1479 1094Z" />
<glyph unicode="x" glyph-name="x" horiz-adv-x="1126" d="M749 555L1135 0H783L561 332L335 0H-8L374 551L-1 1094H351L567 776L780 1094H1122L749 555Z" />
<glyph unicode="y" glyph-name="y" horiz-adv-x="1167" d="M854 1094H1169L628 -440H314L471 0H383L-1 1094H333L591 283L854 1094Z" />
<glyph unicode="z" glyph-name="z" horiz-adv-x="1015" d="M461 252H965V0H66V203L558 842H76V1094H954V892L461 252Z" />
<glyph unicode="{" glyph-name="braceleft" horiz-adv-x="756" d="M513 787T469 722T328 629Q424 602 468 537T513 365V-63Q513 -137 550 -170T665 -203H786V-447Q706 -460 611 -460Q404 -460 299 -362T193 -73V371Q193 434 158 468T62 503H10V755H62Q123 755
158 789T193 887V1249Q193 1439 298 1537T611 1636Q706 1636 786 1623V1379H665Q588 1379 551 1346T513 1239V893Q513 787 469 722Z" />
<glyph unicode="|" glyph-name="bar" horiz-adv-x="554" d="M133 -440V1616H421V-440H133Z" />
<glyph unicode="}" glyph-name="braceright" horiz-adv-x="756" d="M746 755V503H694Q632 503 598 469T563 371V-73Q563 -263 458 -361T145 -460Q50 -460 -30 -447V-203H91Q168 -203 205 -170T243 -63V365Q243 471 288 536T429 629Q333 656 288 721T243 893V1239Q243
1313 206 1346T91 1379H-30V1623Q50 1636 145 1636Q352 1636 457 1538T563 1249V887Q563 824 597 790T694 755H746Z" />
<glyph unicode="~" glyph-name="asciitilde" horiz-adv-x="1101" d="M692 579T644 595T527 643Q468 670 430 683T352 697Q284 697 229 671T117 587V839Q164 889 221 913T354 937Q408 937 455 922T574 874Q633 847 671 834T749 820Q817 820 872 846T984 929V678Q937
627 880 603T747 579Q692 579 644 595Z" />
<glyph unicode="&#xa0;" glyph-name="uni00A0" horiz-adv-x="503" />
<glyph unicode="&#xa1;" glyph-name="exclamdown" horiz-adv-x="597" d="M393 1111T449 1058T506 918Q506 830 450 777T299 723Q202 723 147 775T91 918Q91 1007 147 1059T299 1111Q393 1111 449 1058ZM203 608H398L469 120V-380H129V120L203 608Z" />
<glyph unicode="&#xa2;" glyph-name="cent" horiz-adv-x="968" d="M549 854T474 782T399 548Q399 383 470 310T688 237Q739 237 792 245T916 273V20Q838 -6 744 -15V-240H471V-6Q273 33 171 170T69 545Q69 777 171 912T471 1091V1334H744V1109Q832 1105 916 1086V833Q809
854 714 854Q549 854 474 782Z" />
<glyph unicode="&#xa3;" glyph-name="sterling" horiz-adv-x="1344" d="M1284 260V0H74V260H270V631H74V869H270V1003Q270 1248 426 1373T898 1499Q991 1499 1080 1489T1240 1459V1195Q1169 1215 1083 1226T919 1237Q795 1237 723 1215T619 1144T586 1016V869H1048V631H586V260H1284Z"
/>
<glyph unicode="&#xa4;" glyph-name="currency" horiz-adv-x="1255" d="M1052 469L1166 357L1011 201L898 316L813 417Q729 372 628 372Q526 372 442 417L357 316L245 201L89 357L204 469L305 554Q261 637 261 740Q261 843 306 925L204 1011L88 1123L244 1279L356
1164L443 1062Q526 1106 628 1106Q730 1106 812 1061L899 1164L1011 1279L1167 1123L1052 1011L950 924Q994 842 994 740Q994 638 950 555L1052 469ZM450 652T499 600T628 548Q707 548 756 599T806 740Q806 824 758 878T630 932Q550 932 500 881T450 740Q450 652
499 600Z" />
<glyph unicode="&#xa5;" glyph-name="yen" horiz-adv-x="1301" d="M1335 1480L913 787H1128V598H815V450H1128V261H815V0H489V261H176V450H489V598H176V787H388L-44 1480H303L659 900L1014 1480H1335Z" />
<glyph unicode="&#xa6;" glyph-name="brokenbar" horiz-adv-x="554" d="M133 836V1616H421V836H133ZM133 -440V340H421V-440H133Z" />
<glyph unicode="&#xa7;" glyph-name="section" horiz-adv-x="1110" d="M1019 594T909 503Q972 436 972 326Q972 219 916 141T747 21T471 -21Q389 -21 302 -11T139 21V242Q297 200 467 200Q585 200 634 227T683 308Q683 349 660 371T584 405L368 447Q92 505 92
753Q92 887 199 975Q131 1043 131 1150Q131 1312 260 1404T657 1497Q805 1497 932 1470V1249Q812 1277 681 1277Q420 1277 420 1167Q420 1129 443 1107T519 1074L742 1033Q880 1005 949 932T1019 729Q1019 594 909 503ZM689 609L707 605Q733 630 744 654T756 707Q756
756 729 785T636 828L421 870L397 875Q375 849 365 824T354 771Q354 724 381 695T473 651L689 609Z" />
<glyph unicode="&#xa8;" glyph-name="dieresis" horiz-adv-x="1134" d="M240 1258T195 1300T150 1419Q150 1495 195 1538T323 1581Q406 1581 450 1538T495 1419Q495 1343 450 1301T323 1258Q240 1258 195 1300ZM729 1258T684 1300T639 1419Q639 1495 683 1538T811
1581Q894 1581 939 1538T984 1419Q984 1343 939 1301T811 1258Q729 1258 684 1300Z" />
<glyph unicode="&#xa9;" glyph-name="copyright" horiz-adv-x="1663" d="M609 -22T439 73T176 340T83 740Q83 967 176 1139T439 1407T832 1502Q1055 1502 1224 1407T1487 1140T1580 740Q1580 513 1487 341T1225 73T832 -22Q609 -22 439 73ZM1009 147T1138 219T1335
425T1404 740Q1404 921 1336 1054T1138 1260T832 1333Q654 1333 526 1261T329 1055T260 740Q260 559 328 426T525 220T832 147Q1009 147 1138 219ZM761 324T665 371T516 511T463 733Q463 862 516 954T670 1095T907 1144Q1012 1144 1099 1120V925Q1047 935 1008
940T927 945Q696 945 696 734Q696 630 752 577T912 523Q955 523 997 530T1099 553V358Q1014 324 891 324Q761 324 665 371Z" />
<glyph unicode="&#xaa;" glyph-name="ordfeminine" horiz-adv-x="937" d="M573 1499T669 1462T811 1342T857 1115V610H611L589 697H575Q537 645 475 619T336 593Q242 593 175 625T74 715T39 849Q39 979 128 1047T415 1125L562 1135V1153Q562 1200 544 1227T483
1268T361 1281Q302 1281 237 1272T113 1246V1461Q183 1479 263 1489T417 1499Q573 1499 669 1462ZM474 789T505 800T562 832V989L458 982Q391 978 361 954T330 885Q330 838 359 814T444 789Q474 789 505 800Z" />
<glyph unicode="&#xab;" glyph-name="guillemotleft" horiz-adv-x="1225" d="M334 133L84 567L334 1001H659L410 567L659 133H334ZM855 133L605 567L855 1001H1180L931 567L1180 133H855Z" />
<glyph unicode="&#xac;" glyph-name="logicalnot" horiz-adv-x="1333" d="M967 198V638H117V882H1222V198H967Z" />
<glyph unicode="&#xad;" glyph-name="uni00AD" horiz-adv-x="911" d="M117 437V697H794V437H117Z" />
<glyph unicode="&#xae;" glyph-name="registered" horiz-adv-x="1437" d="M898 1498T1036 1420T1252 1202T1329 882Q1329 702 1252 563T1037 346T719 268Q540 268 402 345T186 562T109 882Q109 1062 186 1202T401 1420T719 1498Q898 1498 1036 1420ZM860 397T967
457T1132 626T1190 882Q1190 1028 1132 1138T967 1309T719 1369Q577 1369 471 1309T306 1139T247 882Q247 736 305 627T470 457T719 397Q860 397 967 457ZM967 860T847 817L996 600H846L710 798H709H641L637 600H501V1192H709Q967 1192 967 994Q967 860 847 817ZM641
909H731Q783 909 808 930T833 994Q833 1081 731 1081H641V909Z" />
<glyph unicode="&#xaf;" glyph-name="overscore" horiz-adv-x="1134" d="M212 1324V1516H922V1324H212Z" />
<glyph unicode="&#xb0;" glyph-name="degree" horiz-adv-x="971" d="M378 755T292 803T158 936T109 1127Q109 1234 157 1318T292 1451T485 1499Q593 1499 679 1451T813 1319T862 1127Q862 1021 814 936T679 803T485 755Q378 755 292 803ZM537 941T577 963T641
1028T664 1127Q664 1213 614 1263T485 1313Q434 1313 394 1291T330 1226T307 1127Q307 1071 330 1029T393 964T485 941Q537 941 577 963Z" />
<glyph unicode="&#xb1;" glyph-name="plusminus" horiz-adv-x="1101" d="M423 374V671H117V916H423V1213H678V916H984V671H678V374H423ZM117 1V245H984V1H117Z" />
<glyph unicode="&#xb2;" glyph-name="uni00B2" horiz-adv-x="855" d="M778 69V-136H81V-3L364 333Q427 409 454 460T481 557Q481 620 439 649T297 679Q238 679 177 668T68 639V840Q120 858 190 867T334 877Q533 877 633 806T734 583Q733 505 698 430T585 262L421 69H778Z" />
<glyph unicode="&#xb3;" glyph-name="uni00B3" horiz-adv-x="855" d="M668 361T719 301T771 144Q771 4 663 -72T343 -149Q195 -149 68 -115V71Q130 53 199 44T331 35Q435 35 483 66T531 160Q531 221 487 251T343 282H170V468H316Q494 468 494 583Q494 638 452
666T317 694Q260 694 197 684T84 655V841Q133 857 206 867T347 877Q541 877 639 807T738 605Q738 523 694 464T572 381Q668 361 719 301Z" />
<glyph unicode="&#xb4;" glyph-name="acute" horiz-adv-x="1134" d="M420 1233L645 1616H985L713 1233H420Z" />
<glyph unicode="&#xb5;" glyph-name="uni00B5" horiz-adv-x="1214" d="M1096 1094V0H832L810 110H797Q748 46 686 14T554 -19Q485 -19 430 9V-440H110V1093H430V431Q430 337 468 297T579 257Q632 257 686 280T776 346V1094H1096Z" />
<glyph unicode="&#xb6;" glyph-name="paragraph" horiz-adv-x="1318" d="M600 432Q553 429 508 429Q292 429 183 564T73 963Q73 1240 188 1369T546 1498Q700 1498 827 1480V0H600V432ZM958 0V1480H1185V0H958Z" />
<glyph unicode="&#xb7;" glyph-name="middot" horiz-adv-x="557" d="M184 366T128 418T71 559Q71 649 126 701T279 754Q374 754 430 701T486 559Q486 472 430 419T279 366Q184 366 128 418Z" />
<glyph unicode="&#xb8;" glyph-name="cedilla" horiz-adv-x="1134" d="M733 -101T774 -146T816 -262Q816 -347 752 -394T562 -442Q460 -442 381 -411V-287Q419 -303 463 -311T547 -319Q598 -319 623 -303T648 -249Q648 -176 546 -176H500V20H653V-88Q733 -101 774 -146Z" />
<glyph unicode="&#xb9;" glyph-name="uni00B9" horiz-adv-x="855" d="M597 69H797V-136H131V69H342V588L134 454V676L432 868H597V69Z" />
<glyph unicode="&#xba;" glyph-name="ordmasculine" horiz-adv-x="1010" d="M285 593T165 710T45 1047Q45 1265 165 1382T505 1499Q650 1499 753 1447T911 1293T965 1047Q965 903 911 801T753 646T505 593Q285 593 165 710ZM585 812T627 865T669 1047Q669 1175
627 1227T505 1280Q426 1280 384 1227T342 1047Q342 919 384 866T505 812Q585 812 627 865Z" />
<glyph unicode="&#xbb;" glyph-name="guillemotright" horiz-adv-x="1225" d="M44 133L294 567L44 1001H370L619 567L370 133H44ZM565 133L815 567L565 1001H891L1140 567L891 133H565Z" />
<glyph unicode="&#xbc;" glyph-name="onequarter" horiz-adv-x="2081" d="M597 821H797V616H131V821H342V1340L134 1206V1428L432 1620H597V821ZM505 -136L1310 1616H1576L771 -136H505ZM2059 252V60H1936V-136H1713V60H1251V196L1562 864H1798L1516 252H1713L1757
526H1936V252H2059Z" />
<glyph unicode="&#xbd;" glyph-name="onehalf" horiz-adv-x="2081" d="M597 821H797V616H131V821H342V1340L134 1206V1428L432 1620H597V821ZM505 -136L1310 1616H1576L771 -136H505ZM2004 69V-136H1307V-3L1590 333Q1653 409 1680 460T1707 557Q1707 620 1665
649T1523 679Q1464 679 1403 668T1294 639V840Q1346 858 1416 867T1560 877Q1759 877 1859 806T1960 583Q1959 505 1924 430T1811 262L1647 69H2004Z" />
<glyph unicode="&#xbe;" glyph-name="threequarters" horiz-adv-x="2081" d="M668 1113T719 1053T771 896Q771 756 663 680T343 603Q195 603 68 637V823Q130 805 199 796T331 787Q435 787 483 818T531 912Q531 973 487 1003T343 1034H170V1220H316Q494 1220 494
1335Q494 1390 452 1418T317 1446Q260 1446 197 1436T84 1407V1593Q133 1609 206 1619T347 1629Q541 1629 639 1559T738 1357Q738 1275 694 1216T572 1133Q668 1113 719 1053ZM505 -136L1310 1616H1576L771 -136H505ZM2059 252V60H1936V-136H1713V60H1251V196L1562
864H1798L1516 252H1713L1757 526H1936V252H2059Z" />
<glyph unicode="&#xbf;" glyph-name="questiondown" horiz-adv-x="993" d="M643 1111T699 1061T756 927Q756 842 700 792T548 742Q453 742 397 792T341 927Q341 1010 397 1060T548 1111Q643 1111 699 1061ZM702 263Q573 237 499 203T394 125T363 24Q363 -150 629
-150Q713 -150 799 -136T961 -94V-345Q889 -370 788 -385T592 -400Q325 -400 188 -298T51 -2Q51 154 146 256T428 416L451 631H646L702 263Z" />
<glyph unicode="&#xc0;" glyph-name="Agrave" horiz-adv-x="1460" d="M1125 0L1003 395H454L332 0H14L492 1480H968L1446 0H1125ZM533 654H923L728 1285L533 654ZM585 1595L357 1898H693L873 1595H585Z" />
<glyph unicode="&#xc1;" glyph-name="Aacute" horiz-adv-x="1460" d="M1125 0L1003 395H454L332 0H14L492 1480H968L1446 0H1125ZM533 654H923L728 1285L533 654ZM583 1595L763 1898H1100L872 1595H583Z" />
<glyph unicode="&#xc2;" glyph-name="Acircumflex" horiz-adv-x="1460" d="M1125 0L1003 395H454L332 0H14L492 1480H968L1446 0H1125ZM533 654H923L728 1285L533 654ZM1121 1595H878L729 1780L580 1595H337L593 1898H865L1121 1595Z" />
<glyph unicode="&#xc3;" glyph-name="Atilde" horiz-adv-x="1460" d="M1125 0L1003 395H454L332 0H14L492 1480H968L1446 0H1125ZM533 654H923L728 1285L533 654ZM853 1619T813 1629T712 1659Q657 1678 623 1686T551 1695Q491 1695 445 1678T352 1625V1808Q393
1845 441 1863T557 1881Q605 1881 646 1871T746 1840Q798 1821 833 1812T907 1803Q967 1803 1013 1820T1106 1873V1690Q1066 1653 1018 1636T901 1619Q853 1619 813 1629Z" />
<glyph unicode="&#xc4;" glyph-name="Adieresis" horiz-adv-x="1460" d="M1125 0L1003 395H454L332 0H14L492 1480H968L1446 0H1125ZM533 654H923L728 1285L533 654ZM388 1606T344 1643T300 1751Q300 1820 344 1858T472 1896Q556 1896 600 1858T644 1751Q644 1681
601 1644T472 1606Q388 1606 344 1643ZM901 1606T858 1643T814 1751Q814 1820 858 1858T986 1896Q1070 1896 1114 1858T1158 1751Q1158 1681 1114 1644T986 1606Q901 1606 858 1643Z" />
<glyph unicode="&#xc5;" glyph-name="Aring" horiz-adv-x="1460" d="M1125 0L1003 395H454L332 0H14L492 1480H968L1446 0H1125ZM533 654H923L728 1285L533 654ZM669 1528T620 1555T543 1629T515 1737Q515 1797 543 1845T620 1920T730 1947Q791 1947 840 1920T917
1845T945 1737Q945 1677 917 1630T840 1555T730 1528Q669 1528 620 1555ZM772 1641T797 1667T823 1737Q823 1782 798 1808T730 1834Q688 1834 663 1808T637 1737Q637 1693 662 1667T730 1641Q772 1641 797 1667Z" />
<glyph unicode="&#xc6;" glyph-name="AE" horiz-adv-x="2008" d="M1280 260H1937V0H978L949 394H458L334 0H14L496 1480H1927V1220H1203L1230 887H1825V627H1251L1280 260ZM540 655H929L887 1220H717L540 655Z" />
<glyph unicode="&#xc7;" glyph-name="Ccedilla" horiz-adv-x="1238" d="M736 1230T632 1180T477 1023T425 741Q425 563 476 455T628 299T887 250Q1029 250 1190 297V28Q1118 6 1032 -6T857 -19Q828 -19 814 -18V-86Q904 -98 951 -142T998 -259Q998 -346 929 -394T725
-442Q613 -442 523 -410V-287Q609 -319 710 -319Q770 -319 800 -303T830 -249Q830 -176 709 -176H660V-5Q376 38 230 220T83 737Q83 1115 286 1307T873 1499Q1044 1499 1190 1464V1196Q1045 1230 898 1230Q736 1230 632 1180Z" />
<glyph unicode="&#xc8;" glyph-name="Egrave" horiz-adv-x="1255" d="M455 260H1184V0H133V1480H1174V1220H455V887H1072V627H455V260ZM531 1595L303 1898H639L819 1595H531Z" />
<glyph unicode="&#xc9;" glyph-name="Eacute" horiz-adv-x="1255" d="M455 260H1184V0H133V1480H1174V1220H455V887H1072V627H455V260ZM529 1595L709 1898H1046L818 1595H529Z" />
<glyph unicode="&#xca;" glyph-name="Ecircumflex" horiz-adv-x="1255" d="M455 260H1184V0H133V1480H1174V1220H455V887H1072V627H455V260ZM1067 1595H824L675 1780L526 1595H283L539 1898H811L1067 1595Z" />
<glyph unicode="&#xcb;" glyph-name="Edieresis" horiz-adv-x="1255" d="M455 260H1184V0H133V1480H1174V1220H455V887H1072V627H455V260ZM334 1606T290 1643T246 1751Q246 1820 290 1858T418 1896Q502 1896 546 1858T590 1751Q590 1681 547 1644T418 1606Q334
1606 290 1643ZM847 1606T804 1643T760 1751Q760 1820 804 1858T932 1896Q1016 1896 1060 1858T1104 1751Q1104 1681 1060 1644T932 1606Q847 1606 804 1643Z" />
<glyph unicode="&#xcc;" glyph-name="Igrave" horiz-adv-x="592" d="M133 0V1480H459V0H133ZM152 1595L-76 1898H260L440 1595H152Z" />
<glyph unicode="&#xcd;" glyph-name="Iacute" horiz-adv-x="592" d="M133 0V1480H459V0H133ZM150 1595L330 1898H667L439 1595H150Z" />
<glyph unicode="&#xce;" glyph-name="Icircumflex" horiz-adv-x="592" d="M133 0V1480H459V0H133ZM688 1595H445L296 1780L147 1595H-96L160 1898H432L688 1595Z" />
<glyph unicode="&#xcf;" glyph-name="Idieresis" horiz-adv-x="592" d="M133 0V1480H459V0H133ZM-45 1606T-89 1643T-133 1751Q-133 1820 -89 1858T39 1896Q123 1896 167 1858T211 1751Q211 1681 168 1644T39 1606Q-45 1606 -89 1643ZM468 1606T425 1643T381 1751Q381
1820 425 1858T553 1896Q637 1896 681 1858T725 1751Q725 1681 681 1644T553 1606Q468 1606 425 1643Z" />
<glyph unicode="&#xd0;" glyph-name="Eth" horiz-adv-x="1501" d="M1010 1496T1214 1311T1418 740Q1418 476 1321 309T1030 64T538 -15Q326 -15 133 9V658H4V866H133V1447Q237 1470 361 1483T603 1496Q1010 1496 1214 1311ZM781 250T882 299T1033 456T1083 741Q1083
916 1033 1024T881 1183T625 1233Q546 1233 459 1218V866H732V658H459V257Q523 250 623 250Q781 250 882 299Z" />
<glyph unicode="&#xd1;" glyph-name="Ntilde" horiz-adv-x="1544" d="M1104 1480H1411V0H1083L440 991V0H133V1480H461L1104 489V1480ZM896 1619T856 1629T755 1659Q700 1678 666 1686T594 1695Q534 1695 488 1678T395 1625V1808Q436 1845 484 1863T600 1881Q648
1881 689 1871T789 1840Q841 1821 876 1812T950 1803Q1010 1803 1056 1820T1149 1873V1690Q1109 1653 1061 1636T944 1619Q896 1619 856 1629Z" />
<glyph unicode="&#xd2;" glyph-name="Ograve" horiz-adv-x="1563" d="M567 -19T411 64T169 318T83 740Q83 992 168 1162T410 1415T782 1499Q997 1499 1153 1415T1395 1161T1480 740Q1480 489 1395 319T1153 65T782 -19Q567 -19 411 64ZM959 244T1052 361T1145
733Q1145 997 1052 1116T782 1236Q605 1236 512 1119T418 747Q418 482 511 363T782 244Q959 244 1052 361ZM638 1595L410 1898H746L926 1595H638Z" />
<glyph unicode="&#xd3;" glyph-name="Oacute" horiz-adv-x="1563" d="M567 -19T411 64T169 318T83 740Q83 992 168 1162T410 1415T782 1499Q997 1499 1153 1415T1395 1161T1480 740Q1480 489 1395 319T1153 65T782 -19Q567 -19 411 64ZM959 244T1052 361T1145
733Q1145 997 1052 1116T782 1236Q605 1236 512 1119T418 747Q418 482 511 363T782 244Q959 244 1052 361ZM636 1595L816 1898H1153L925 1595H636Z" />
<glyph unicode="&#xd4;" glyph-name="Ocircumflex" horiz-adv-x="1563" d="M567 -19T411 64T169 318T83 740Q83 992 168 1162T410 1415T782 1499Q997 1499 1153 1415T1395 1161T1480 740Q1480 489 1395 319T1153 65T782 -19Q567 -19 411 64ZM959 244T1052 361T1145
733Q1145 997 1052 1116T782 1236Q605 1236 512 1119T418 747Q418 482 511 363T782 244Q959 244 1052 361ZM1174 1595H931L782 1780L633 1595H390L646 1898H918L1174 1595Z" />
<glyph unicode="&#xd5;" glyph-name="Otilde" horiz-adv-x="1563" d="M567 -19T411 64T169 318T83 740Q83 992 168 1162T410 1415T782 1499Q997 1499 1153 1415T1395 1161T1480 740Q1480 489 1395 319T1153 65T782 -19Q567 -19 411 64ZM959 244T1052 361T1145
733Q1145 997 1052 1116T782 1236Q605 1236 512 1119T418 747Q418 482 511 363T782 244Q959 244 1052 361ZM906 1619T866 1629T765 1659Q710 1678 676 1686T604 1695Q544 1695 498 1678T405 1625V1808Q446 1845 494 1863T610 1881Q658 1881 699 1871T799 1840Q851
1821 886 1812T960 1803Q1020 1803 1066 1820T1159 1873V1690Q1119 1653 1071 1636T954 1619Q906 1619 866 1629Z" />
<glyph unicode="&#xd6;" glyph-name="Odieresis" horiz-adv-x="1563" d="M567 -19T411 64T169 318T83 740Q83 992 168 1162T410 1415T782 1499Q997 1499 1153 1415T1395 1161T1480 740Q1480 489 1395 319T1153 65T782 -19Q567 -19 411 64ZM959 244T1052 361T1145
733Q1145 997 1052 1116T782 1236Q605 1236 512 1119T418 747Q418 482 511 363T782 244Q959 244 1052 361ZM441 1606T397 1643T353 1751Q353 1820 397 1858T525 1896Q609 1896 653 1858T697 1751Q697 1681 654 1644T525 1606Q441 1606 397 1643ZM954 1606T911 1643T867
1751Q867 1820 911 1858T1039 1896Q1123 1896 1167 1858T1211 1751Q1211 1681 1167 1644T1039 1606Q954 1606 911 1643Z" />
<glyph unicode="&#xd7;" glyph-name="multiply" horiz-adv-x="1042" d="M259 326L87 498L349 760L87 1022L259 1194L521 932L783 1194L955 1022L693 760L955 498L783 326L521 588L259 326Z" />
<glyph unicode="&#xd8;" glyph-name="Oslash" horiz-adv-x="1563" d="M1395 1191T1437 1054T1480 740Q1480 489 1395 319T1153 65T782 -19Q544 -19 379 83L277 -48L143 57L250 194Q83 389 83 740Q83 992 168 1162T410 1415T782 1499Q1021 1499 1184 1397L1286
1528L1420 1423L1313 1286Q1395 1191 1437 1054ZM418 575T458 463L1005 1166Q919 1236 782 1236Q605 1236 512 1119T418 747Q418 575 458 463ZM959 244T1052 361T1145 733Q1145 905 1104 1017L558 314Q642 244 782 244Q959 244 1052 361Z" />
<glyph unicode="&#xd9;" glyph-name="Ugrave" horiz-adv-x="1496" d="M429 -19T278 136T126 614V1480H453V582Q453 408 526 328T751 248Q903 248 976 328T1049 582V1480H1370V614Q1370 292 1220 137T751 -19Q429 -19 278 136ZM607 1595L379 1898H715L895 1595H607Z" />
<glyph unicode="&#xda;" glyph-name="Uacute" horiz-adv-x="1496" d="M429 -19T278 136T126 614V1480H453V582Q453 408 526 328T751 248Q903 248 976 328T1049 582V1480H1370V614Q1370 292 1220 137T751 -19Q429 -19 278 136ZM605 1595L785 1898H1122L894 1595H605Z" />
<glyph unicode="&#xdb;" glyph-name="Ucircumflex" horiz-adv-x="1496" d="M429 -19T278 136T126 614V1480H453V582Q453 408 526 328T751 248Q903 248 976 328T1049 582V1480H1370V614Q1370 292 1220 137T751 -19Q429 -19 278 136ZM1143 1595H900L751 1780L602
1595H359L615 1898H887L1143 1595Z" />
<glyph unicode="&#xdc;" glyph-name="Udieresis" horiz-adv-x="1496" d="M429 -19T278 136T126 614V1480H453V582Q453 408 526 328T751 248Q903 248 976 328T1049 582V1480H1370V614Q1370 292 1220 137T751 -19Q429 -19 278 136ZM410 1606T366 1643T322 1751Q322
1820 366 1858T494 1896Q578 1896 622 1858T666 1751Q666 1681 623 1644T494 1606Q410 1606 366 1643ZM923 1606T880 1643T836 1751Q836 1820 880 1858T1008 1896Q1092 1896 1136 1858T1180 1751Q1180 1681 1136 1644T1008 1606Q923 1606 880 1643Z" />
<glyph unicode="&#xdd;" glyph-name="Yacute" horiz-adv-x="1287" d="M1327 1480L808 626V0H482V625L-52 1480H294L652 901L1005 1480H1327ZM498 1595L678 1898H1015L787 1595H498Z" />
<glyph unicode="&#xde;" glyph-name="Thorn" horiz-adv-x="1328" d="M133 1480H459V1287Q529 1295 586 1295Q917 1295 1080 1165T1244 760Q1244 496 1083 361T604 226Q557 226 459 230V0H133V1480ZM773 470T850 538T927 758Q927 911 850 981T611 1051Q530 1051
459 1039V478Q537 470 605 470Q773 470 850 538Z" />
<glyph unicode="&#xdf;" glyph-name="germandbls" horiz-adv-x="1571" d="M1377 618T1449 545T1521 331Q1521 222 1463 143T1290 22T1013 -21Q932 -21 845 -10T681 21V254Q755 234 842 223T1009 212Q1126 212 1175 239T1224 320Q1224 360 1202 381T1125 414L948
446Q795 474 724 551T652 761Q652 867 708 943T875 1061T1149 1102H1155Q1156 1113 1156 1134Q1156 1280 1077 1347T858 1415Q689 1415 606 1324T523 1042V0H203V837H25V1094H205Q215 1266 293 1387T508 1572T834 1636Q1000 1636 1123 1580T1315 1405T1384 1109Q1384
1001 1350 870Q1283 879 1194 879Q1058 879 1004 849T950 769Q950 733 972 711T1048 679L1225 647Q1377 618 1449 545Z" />
<glyph unicode="&#xe0;" glyph-name="agrave" horiz-adv-x="1119" d="M683 1111T793 1067T956 923T1009 650V0H745L723 108H708Q660 43 585 12T418 -20Q308 -20 228 19T106 130T63 297Q63 454 172 540T518 641L696 656V670Q696 746 672 789T594 850T447 869Q380
869 301 858T150 825V1065Q228 1087 323 1099T504 1111Q683 1111 793 1067ZM570 202T615 218T696 271V476L550 465Q460 458 419 424T378 327Q378 266 415 234T523 202Q570 202 615 218ZM409 1233L138 1616H478L702 1233H409Z" />
<glyph unicode="&#xe1;" glyph-name="aacute" horiz-adv-x="1119" d="M683 1111T793 1067T956 923T1009 650V0H745L723 108H708Q660 43 585 12T418 -20Q308 -20 228 19T106 130T63 297Q63 454 172 540T518 641L696 656V670Q696 746 672 789T594 850T447 869Q380
869 301 858T150 825V1065Q228 1087 323 1099T504 1111Q683 1111 793 1067ZM570 202T615 218T696 271V476L550 465Q460 458 419 424T378 327Q378 266 415 234T523 202Q570 202 615 218ZM409 1233L634 1616H974L702 1233H409Z" />
<glyph unicode="&#xe2;" glyph-name="acircumflex" horiz-adv-x="1119" d="M683 1111T793 1067T956 923T1009 650V0H745L723 108H708Q660 43 585 12T418 -20Q308 -20 228 19T106 130T63 297Q63 454 172 540T518 641L696 656V670Q696 746 672 789T594 850T447 869Q380
869 301 858T150 825V1065Q228 1087 323 1099T504 1111Q683 1111 793 1067ZM570 202T615 218T696 271V476L550 465Q460 458 419 424T378 327Q378 266 415 234T523 202Q570 202 615 218ZM920 1233H690L556 1466L421 1233H192L425 1616H687L920 1233Z" />
<glyph unicode="&#xe3;" glyph-name="atilde" horiz-adv-x="1119" d="M683 1111T793 1067T956 923T1009 650V0H745L723 108H708Q660 43 585 12T418 -20Q308 -20 228 19T106 130T63 297Q63 454 172 540T518 641L696 656V670Q696 746 672 789T594 850T447 869Q380
869 301 858T150 825V1065Q228 1087 323 1099T504 1111Q683 1111 793 1067ZM570 202T615 218T696 271V476L550 465Q460 458 419 424T378 327Q378 266 415 234T523 202Q570 202 615 218ZM671 1285T632 1297T538 1334Q490 1356 458 1366T393 1377Q337 1377 292 1357T201
1292V1492Q240 1532 288 1550T398 1569Q441 1569 480 1557T574 1520Q622 1498 654 1488T719 1477Q775 1477 820 1497T911 1562V1362Q872 1322 824 1304T714 1285Q671 1285 632 1297Z" />
<glyph unicode="&#xe4;" glyph-name="adieresis" horiz-adv-x="1119" d="M683 1111T793 1067T956 923T1009 650V0H745L723 108H708Q660 43 585 12T418 -20Q308 -20 228 19T106 130T63 297Q63 454 172 540T518 641L696 656V670Q696 746 672 789T594 850T447 869Q380
869 301 858T150 825V1065Q228 1087 323 1099T504 1111Q683 1111 793 1067ZM570 202T615 218T696 271V476L550 465Q460 458 419 424T378 327Q378 266 415 234T523 202Q570 202 615 218ZM229 1258T184 1300T139 1419Q139 1495 184 1538T312 1581Q395 1581 439 1538T484
1419Q484 1343 439 1301T312 1258Q229 1258 184 1300ZM718 1258T673 1300T628 1419Q628 1495 672 1538T800 1581Q883 1581 928 1538T973 1419Q973 1343 928 1301T800 1258Q718 1258 673 1300Z" />
<glyph unicode="&#xe5;" glyph-name="aring" horiz-adv-x="1119" d="M683 1111T793 1067T956 923T1009 650V0H745L723 108H708Q660 43 585 12T418 -20Q308 -20 228 19T106 130T63 297Q63 454 172 540T518 641L696 656V670Q696 746 672 789T594 850T447 869Q380
869 301 858T150 825V1065Q228 1087 323 1099T504 1111Q683 1111 793 1067ZM570 202T615 218T696 271V476L550 465Q460 458 419 424T378 327Q378 266 415 234T523 202Q570 202 615 218ZM495 1228T446 1255T369 1329T341 1437Q341 1497 369 1544T446 1619T556 1646Q617
1646 666 1619T743 1545T771 1437Q771 1377 743 1330T666 1255T556 1228Q495 1228 446 1255ZM598 1340T623 1366T649 1437Q649 1482 624 1508T556 1534Q514 1534 489 1508T463 1437Q463 1392 488 1366T556 1340Q598 1340 623 1366Z" />
<glyph unicode="&#xe6;" glyph-name="ae" horiz-adv-x="1722" d="M1665 454H1010Q1015 366 1047 316T1146 243T1330 220Q1454 220 1604 255V16Q1445 -21 1286 -21Q1119 -21 1003 18T816 139Q672 -20 447 -20Q323 -20 237 19T107 130T63 299Q63 459 177 549T529
639H699V669Q699 745 673 788T593 850T446 869Q380 869 301 858T151 825V1065Q315 1111 491 1111Q631 1111 725 1079T876 977Q936 1043 1020 1077T1208 1112Q1352 1112 1454 1047T1611 854T1665 538V454ZM1101 909T1057 848T1009 639H1368Q1365 786 1322 847T1190
909Q1101 909 1057 848ZM584 203T635 224T732 297Q710 369 702 461H559Q378 461 378 325Q378 266 416 235T526 203Q584 203 635 224Z" />
<glyph unicode="&#xe7;" glyph-name="ccedilla" horiz-adv-x="963" d="M604 854T535 823T432 725T399 548Q399 383 470 310T688 237Q739 237 792 245T916 273V20Q856 0 785 -10T640 -21V-88Q720 -101 761 -146T803 -262Q803 -347 739 -394T549 -442Q447 -442 368
-411V-287Q406 -303 450 -311T534 -319Q585 -319 610 -303T635 -249Q635 -176 533 -176H487V-9Q282 26 176 164T69 545Q69 830 223 970T671 1111Q807 1111 916 1086V833Q811 854 715 854Q604 854 535 823Z" />
<glyph unicode="&#xe8;" glyph-name="egrave" horiz-adv-x="1110" d="M1053 454H389Q394 366 426 316T528 243T716 220Q841 220 992 255V16Q832 -21 671 -21Q462 -21 330 38T133 223T69 548Q69 728 128 854T302 1046T578 1111Q810 1111 931 965T1053 538V454ZM483
909T437 847T388 639H755Q752 786 708 847T574 909Q483 909 437 847ZM425 1233L154 1616H494L718 1233H425Z" />
<glyph unicode="&#xe9;" glyph-name="eacute" horiz-adv-x="1110" d="M1053 454H389Q394 366 426 316T528 243T716 220Q841 220 992 255V16Q832 -21 671 -21Q462 -21 330 38T133 223T69 548Q69 728 128 854T302 1046T578 1111Q810 1111 931 965T1053 538V454ZM483
909T437 847T388 639H755Q752 786 708 847T574 909Q483 909 437 847ZM425 1233L650 1616H990L718 1233H425Z" />
<glyph unicode="&#xea;" glyph-name="ecircumflex" horiz-adv-x="1110" d="M1053 454H389Q394 366 426 316T528 243T716 220Q841 220 992 255V16Q832 -21 671 -21Q462 -21 330 38T133 223T69 548Q69 728 128 854T302 1046T578 1111Q810 1111 931 965T1053 538V454ZM483
909T437 847T388 639H755Q752 786 708 847T574 909Q483 909 437 847ZM936 1233H706L572 1466L437 1233H208L441 1616H703L936 1233Z" />
<glyph unicode="&#xeb;" glyph-name="edieresis" horiz-adv-x="1110" d="M1053 454H389Q394 366 426 316T528 243T716 220Q841 220 992 255V16Q832 -21 671 -21Q462 -21 330 38T133 223T69 548Q69 728 128 854T302 1046T578 1111Q810 1111 931 965T1053 538V454ZM483
909T437 847T388 639H755Q752 786 708 847T574 909Q483 909 437 847ZM245 1258T200 1300T155 1419Q155 1495 200 1538T328 1581Q411 1581 455 1538T500 1419Q500 1343 455 1301T328 1258Q245 1258 200 1300ZM734 1258T689 1300T644 1419Q644 1495 688 1538T816
1581Q899 1581 944 1538T989 1419Q989 1343 944 1301T816 1258Q734 1258 689 1300Z" />
<glyph unicode="&#xec;" glyph-name="igrave" horiz-adv-x="558" d="M119 0V1094H439V0H119ZM132 1233L-139 1616H201L425 1233H132Z" />
<glyph unicode="&#xed;" glyph-name="iacute" horiz-adv-x="558" d="M119 0V1094H439V0H119ZM132 1233L357 1616H697L425 1233H132Z" />
<glyph unicode="&#xee;" glyph-name="icircumflex" horiz-adv-x="558" d="M119 0V1094H439V0H119ZM643 1233H413L279 1466L144 1233H-85L148 1616H410L643 1233Z" />
<glyph unicode="&#xef;" glyph-name="idieresis" horiz-adv-x="558" d="M119 0V1094H439V0H119ZM-48 1258T-93 1300T-138 1419Q-138 1495 -93 1538T35 1581Q118 1581 162 1538T207 1419Q207 1343 162 1301T35 1258Q-48 1258 -93 1300ZM441 1258T396 1300T351 1419Q351
1495 395 1538T523 1581Q606 1581 651 1538T696 1419Q696 1343 651 1301T523 1258Q441 1258 396 1300Z" />
<glyph unicode="&#xf0;" glyph-name="eth" horiz-adv-x="1206" d="M1014 1151T1076 969T1138 610Q1138 289 1000 134T603 -22Q436 -22 317 41T133 231T69 544Q69 731 131 856T307 1043T574 1104Q652 1104 718 1078Q672 1172 608 1258L186 1183L152 1357L476 1415Q372
1522 243 1616H622Q708 1552 782 1470L1073 1522L1107 1347L906 1311Q1014 1151 1076 969ZM709 220T762 294T815 541Q815 663 791 735T720 837T603 868Q497 868 444 795T391 545Q391 424 415 353T485 251T603 220Q709 220 762 294Z" />
<glyph unicode="&#xf1;" glyph-name="ntilde" horiz-adv-x="1223" d="M119 1094H382L404 983H419Q479 1045 561 1078T740 1111Q913 1111 1013 1007T1113 681V0H793V662Q793 757 754 796T639 836Q582 836 528 813T439 746V0H119V1094ZM732 1285T693 1297T599 1334Q551
1356 519 1366T454 1377Q398 1377 353 1357T262 1292V1492Q301 1532 349 1550T459 1569Q502 1569 541 1557T635 1520Q683 1498 715 1488T780 1477Q836 1477 881 1497T972 1562V1362Q933 1322 885 1304T775 1285Q732 1285 693 1297Z" />
<glyph unicode="&#xf2;" glyph-name="ograve" horiz-adv-x="1206" d="M437 -21T318 42T134 231T69 544Q69 826 208 968T603 1111Q858 1111 997 968T1137 546Q1137 359 1073 232T889 42T603 -21Q437 -21 318 42ZM674 222T720 252T790 352T815 543Q815 665 791 737T720
839T603 869Q533 869 487 839T416 739T391 547Q391 425 415 354T486 252T603 222Q674 222 720 252ZM456 1233L185 1616H525L749 1233H456Z" />
<glyph unicode="&#xf3;" glyph-name="oacute" horiz-adv-x="1206" d="M437 -21T318 42T134 231T69 544Q69 826 208 968T603 1111Q858 1111 997 968T1137 546Q1137 359 1073 232T889 42T603 -21Q437 -21 318 42ZM674 222T720 252T790 352T815 543Q815 665 791 737T720
839T603 869Q533 869 487 839T416 739T391 547Q391 425 415 354T486 252T603 222Q674 222 720 252ZM456 1233L681 1616H1021L749 1233H456Z" />
<glyph unicode="&#xf4;" glyph-name="ocircumflex" horiz-adv-x="1206" d="M437 -21T318 42T134 231T69 544Q69 826 208 968T603 1111Q858 1111 997 968T1137 546Q1137 359 1073 232T889 42T603 -21Q437 -21 318 42ZM674 222T720 252T790 352T815 543Q815 665
791 737T720 839T603 869Q533 869 487 839T416 739T391 547Q391 425 415 354T486 252T603 222Q674 222 720 252ZM967 1233H737L603 1466L468 1233H239L472 1616H734L967 1233Z" />
<glyph unicode="&#xf5;" glyph-name="otilde" horiz-adv-x="1206" d="M437 -21T318 42T134 231T69 544Q69 826 208 968T603 1111Q858 1111 997 968T1137 546Q1137 359 1073 232T889 42T603 -21Q437 -21 318 42ZM674 222T720 252T790 352T815 543Q815 665 791 737T720
839T603 869Q533 869 487 839T416 739T391 547Q391 425 415 354T486 252T603 222Q674 222 720 252ZM718 1285T679 1297T585 1334Q537 1356 505 1366T440 1377Q384 1377 339 1357T248 1292V1492Q287 1532 335 1550T445 1569Q488 1569 527 1557T621 1520Q669 1498
701 1488T766 1477Q822 1477 867 1497T958 1562V1362Q919 1322 871 1304T761 1285Q718 1285 679 1297Z" />
<glyph unicode="&#xf6;" glyph-name="odieresis" horiz-adv-x="1206" d="M437 -21T318 42T134 231T69 544Q69 826 208 968T603 1111Q858 1111 997 968T1137 546Q1137 359 1073 232T889 42T603 -21Q437 -21 318 42ZM674 222T720 252T790 352T815 543Q815 665 791
737T720 839T603 869Q533 869 487 839T416 739T391 547Q391 425 415 354T486 252T603 222Q674 222 720 252ZM276 1258T231 1300T186 1419Q186 1495 231 1538T359 1581Q442 1581 486 1538T531 1419Q531 1343 486 1301T359 1258Q276 1258 231 1300ZM765 1258T720
1300T675 1419Q675 1495 719 1538T847 1581Q930 1581 975 1538T1020 1419Q1020 1343 975 1301T847 1258Q765 1258 720 1300Z" />
<glyph unicode="&#xf7;" glyph-name="divide" horiz-adv-x="1101" d="M464 989T413 1036T361 1165Q361 1247 412 1294T551 1342Q638 1342 689 1294T740 1165Q740 1085 688 1037T551 989Q464 989 413 1036ZM117 638V882H984V638H117ZM464 178T413 225T361 354Q361
436 411 483T551 531Q638 531 689 483T740 354Q740 274 688 226T551 178Q464 178 413 225Z" />
<glyph unicode="&#xf8;" glyph-name="oslash" horiz-adv-x="1206" d="M1137 819T1137 546Q1137 359 1073 232T889 42T603 -21Q446 -21 332 34L264 -59L134 38L202 131Q69 276 69 544Q69 826 208 968T603 1111Q760 1111 870 1058L939 1153L1069 1056L1001 964Q1137
819 1137 546ZM530 873T482 843T408 741T382 547Q382 448 399 380L729 839Q681 873 603 873Q530 873 482 843ZM676 218T724 248T798 350T824 543Q824 650 805 716L474 254Q521 218 603 218Q676 218 724 248Z" />
<glyph unicode="&#xf9;" glyph-name="ugrave" horiz-adv-x="1214" d="M313 -19T212 84T110 410V1094H430V431Q430 337 468 297T579 257Q632 257 686 280T776 346V1094H1096V0H832L810 110H797Q734 46 656 14T488 -19Q313 -19 212 84ZM456 1233L185 1616H525L749
1233H456Z" />
<glyph unicode="&#xfa;" glyph-name="uacute" horiz-adv-x="1214" d="M313 -19T212 84T110 410V1094H430V431Q430 337 468 297T579 257Q632 257 686 280T776 346V1094H1096V0H832L810 110H797Q734 46 656 14T488 -19Q313 -19 212 84ZM456 1233L681 1616H1021L749
1233H456Z" />
<glyph unicode="&#xfb;" glyph-name="ucircumflex" horiz-adv-x="1214" d="M313 -19T212 84T110 410V1094H430V431Q430 337 468 297T579 257Q632 257 686 280T776 346V1094H1096V0H832L810 110H797Q734 46 656 14T488 -19Q313 -19 212 84ZM967 1233H737L603 1466L468
1233H239L472 1616H734L967 1233Z" />
<glyph unicode="&#xfc;" glyph-name="udieresis" horiz-adv-x="1214" d="M313 -19T212 84T110 410V1094H430V431Q430 337 468 297T579 257Q632 257 686 280T776 346V1094H1096V0H832L810 110H797Q734 46 656 14T488 -19Q313 -19 212 84ZM276 1258T231 1300T186
1419Q186 1495 231 1538T359 1581Q442 1581 486 1538T531 1419Q531 1343 486 1301T359 1258Q276 1258 231 1300ZM765 1258T720 1300T675 1419Q675 1495 719 1538T847 1581Q930 1581 975 1538T1020 1419Q1020 1343 975 1301T847 1258Q765 1258 720 1300Z" />
<glyph unicode="&#xfd;" glyph-name="yacute" horiz-adv-x="1167" d="M854 1094H1169L628 -440H314L471 0H383L-1 1094H333L591 283L854 1094ZM437 1233L662 1616H1002L730 1233H437Z" />
<glyph unicode="&#xfe;" glyph-name="thorn" horiz-adv-x="1231" d="M119 1616H439V988H454Q503 1047 575 1079T737 1111Q856 1111 952 1053T1105 873T1162 568Q1162 281 1010 131T566 -20Q513 -20 439 -12V-440H119V1616ZM705 223T772 298T840 543Q840 712 783
781T617 850Q566 850 519 832T439 779V235Q497 223 565 223Q705 223 772 298Z" />
<glyph unicode="&#xff;" glyph-name="ydieresis" horiz-adv-x="1167" d="M854 1094H1169L628 -440H314L471 0H383L-1 1094H333L591 283L854 1094ZM257 1258T212 1300T167 1419Q167 1495 212 1538T340 1581Q423 1581 467 1538T512 1419Q512 1343 467 1301T340 1258Q257
1258 212 1300ZM746 1258T701 1300T656 1419Q656 1495 700 1538T828 1581Q911 1581 956 1538T1001 1419Q1001 1343 956 1301T828 1258Q746 1258 701 1300Z" />
<glyph unicode="&#x2013;" glyph-name="endash" horiz-adv-x="900" d="M0 455V679H900V455H0Z" />
<glyph unicode="&#x2014;" glyph-name="emdash" horiz-adv-x="1800" d="M0 455V679H1800V455H0Z" />
<glyph unicode="&#x2018;" glyph-name="quoteleft" horiz-adv-x="557" d="M391 1281T438 1230T486 1097Q486 1007 433 955T290 903Q182 903 128 966T73 1155Q73 1275 115 1396T230 1616H412Q367 1519 342 1441T311 1289Q391 1281 438 1230Z" />
<glyph unicode="&#x2019;" glyph-name="quoteright" horiz-adv-x="557" d="M377 1633T431 1570T485 1381Q485 1261 443 1140T328 920H145Q190 1017 215 1095T246 1247Q166 1256 119 1307T71 1439Q71 1529 125 1581T274 1633Q377 1633 431 1570Z" />
<glyph unicode="&#x201a;" glyph-name="quotesinglbase" horiz-adv-x="557" d="M377 371T431 308T485 119Q485 -1 443 -122T328 -342H145Q190 -245 215 -167T246 -15Q166 -6 119 45T71 177Q71 267 125 319T274 371Q377 371 431 308Z" />
<glyph unicode="&#x201c;" glyph-name="quotedblleft" horiz-adv-x="1049" d="M391 1281T438 1230T486 1097Q486 1007 433 955T290 903Q182 903 128 966T73 1155Q73 1275 115 1396T230 1616H412Q367 1519 342 1441T311 1289Q391 1281 438 1230ZM883 1281T930 1230T978
1097Q978 1007 925 955T782 903Q674 903 620 966T565 1155Q565 1275 607 1396T722 1616H904Q859 1519 834 1441T803 1289Q883 1281 930 1230Z" />
<glyph unicode="&#x201d;" glyph-name="quotedblright" horiz-adv-x="1049" d="M377 1633T431 1570T485 1381Q485 1261 443 1140T328 920H145Q190 1017 215 1095T246 1247Q166 1256 119 1307T71 1439Q71 1529 125 1581T274 1633Q377 1633 431 1570ZM869 1633T923
1570T977 1381Q977 1261 935 1140T820 920H637Q682 1017 707 1095T738 1247Q658 1256 611 1307T563 1439Q563 1529 617 1581T766 1633Q869 1633 923 1570Z" />
<glyph unicode="&#x201e;" glyph-name="quotedblbase" horiz-adv-x="1049" d="M377 371T431 308T485 119Q485 -1 443 -122T328 -342H145Q190 -245 215 -167T246 -15Q166 -6 119 45T71 177Q71 267 125 319T274 371Q377 371 431 308ZM869 371T923 308T977 119Q977
-1 935 -122T820 -342H637Q682 -245 707 -167T738 -15Q658 -6 611 45T563 177Q563 267 617 319T766 371Q869 371 923 308Z" />
<glyph unicode="&#x2022;" glyph-name="bullet" horiz-adv-x="761" d="M294 251T224 291T112 401T71 560Q71 648 112 718T223 829T380 869Q466 869 536 829T648 719T689 560Q689 472 648 402T537 291T380 251Q294 251 224 291Z" />
<glyph unicode="&#x2039;" glyph-name="guilsinglleft" horiz-adv-x="703" d="M334 133L84 567L334 1001H659L410 567L659 133H334Z" />
<glyph unicode="&#x203a;" glyph-name="guilsinglright" horiz-adv-x="703" d="M44 133L294 567L44 1001H370L619 567L370 133H44Z" />
</font>
</defs>
</svg>
