<?xml version="1.0" standalone="no"?>
<!DOCTYPE svg PUBLIC "-//W3C//DTD SVG 1.1//EN" "http://www.w3.org/Graphics/SVG/1.1/DTD/svg11.dtd">
<svg xmlns="http://www.w3.org/2000/svg">
<defs >
<font id="EncodeSans" horiz-adv-x="1178" ><font-face
    font-family="Encode Sans SemiBold"
    units-per-em="2000"
    panose-1="0 0 7 0 0 0 0 0 0 0"
    ascent="2060"
    descent="-440"
    alphabetic="0" />
<glyph unicode=" " glyph-name="space" horiz-adv-x="498" />
<glyph unicode="!" glyph-name="exclam" horiz-adv-x="563" d="M202 432L142 947V1480H420V947L363 432H202ZM202 -15T155 27T107 140Q107 212 154 254T281 297Q361 297 408 254T455 140Q455 70 408 28T281 -15Q202 -15 155 27Z" />
<glyph unicode="&quot;" glyph-name="quotedbl" horiz-adv-x="855" d="M148 870L97 1616H359L308 870H148ZM547 870L496 1616H758L707 870H547Z" />
<glyph unicode="#" glyph-name="numbersign" horiz-adv-x="1219" d="M1119 863H928L902 617H1119V415H881L838 0H633L676 415H475L432 0H227L270 415H100V617H291L317 863H100V1065H338L381 1480H586L543 1065H744L787 1480H992L949 1065H1119V863ZM697 617L723
863H522L496 617H697Z" />
<glyph unicode="$" glyph-name="dollar" horiz-adv-x="1121" d="M1059 258T962 149T684 1V-240H437V-18Q348 -15 260 0T93 40V259Q183 230 288 214T480 198Q643 198 717 250T792 406Q792 464 770 502T695 568T550 620L450 646Q254 695 158 797T62 1064Q62 1229
156 1335T437 1479V1720H684V1499Q859 1494 987 1458V1239Q915 1260 832 1271T669 1282Q489 1282 409 1230T328 1078Q328 1023 348 986T416 922T547 872L647 847Q860 794 959 692T1059 424Q1059 258 962 149Z" />
<glyph unicode="%" glyph-name="percent" horiz-adv-x="2008" d="M295 572T193 687T91 1035Q91 1267 193 1383T471 1499Q647 1499 748 1383T850 1035Q850 803 748 688T471 572Q295 572 193 687ZM567 0L1223 1480H1441L785 0H567ZM552 740T596 808T641 1034Q641
1193 597 1261T471 1330Q390 1330 345 1262T300 1036Q300 878 345 809T471 740Q552 740 596 808ZM1361 -18T1259 98T1157 446Q1157 678 1259 794T1537 910Q1713 910 1814 794T1916 446Q1916 214 1815 98T1537 -18Q1361 -18 1259 98ZM1618 151T1662 219T1707 445Q1707
604 1663 672T1537 741Q1456 741 1411 673T1366 447Q1366 289 1411 220T1537 151Q1618 151 1662 219Z" />
<glyph unicode="&amp;" glyph-name="ampersand" horiz-adv-x="1563" d="M1440 -20L1183 161Q1101 72 976 27T688 -18Q503 -18 375 34T182 181T117 404Q117 532 181 630T357 784Q304 850 282 915T260 1056Q260 1268 407 1383T847 1499Q977 1499 1102 1474V1255Q986
1282 864 1282Q684 1282 606 1224T527 1051Q527 999 544 957T602 870T718 768L1107 494Q1112 539 1112 579Q1112 639 1102 707T1074 839H1288Q1324 712 1324 581Q1324 461 1295 363L1563 174L1440 -20ZM916 173T1015 278L595 573Q532 618 485 656Q383 569 383 433Q383
311 468 242T717 173Q916 173 1015 278Z" />
<glyph unicode="&apos;" glyph-name="quotesingle" horiz-adv-x="456" d="M148 870L97 1616H359L308 870H148Z" />
<glyph unicode="(" glyph-name="parenleft" horiz-adv-x="695" d="M111 -39T111 588Q111 1215 455 1616H731Q549 1391 465 1138T380 588Q380 291 464 38T731 -440H455Q111 -39 111 588Z" />
<glyph unicode=")" glyph-name="parenright" horiz-adv-x="695" d="M146 -215T230 38T315 588Q315 885 231 1138T-36 1616H240Q584 1215 584 588Q584 -39 240 -440H-36Q146 -215 230 38Z" />
<glyph unicode="*" glyph-name="asterisk" horiz-adv-x="974" d="M585 1155L722 1017L817 886L673 782L578 912L487 1094L396 912L301 782L157 886L252 1017L389 1155L200 1185L30 1240L85 1409L254 1354L429 1264L398 1458V1616H576V1458L545 1264L720 1354L889
1409L944 1240L774 1185L585 1155Z" />
<glyph unicode="+" glyph-name="plus" horiz-adv-x="1092" d="M440 332V659H129V861H440V1188H652V861H964V659H652V332H440Z" />
<glyph unicode="," glyph-name="comma" horiz-adv-x="523" d="M343 312T388 259T434 99Q434 -13 398 -126T298 -332H147Q188 -238 210 -163T239 -14Q169 -8 128 35T87 149Q87 225 133 268T257 312Q343 312 388 259Z" />
<glyph unicode="-" glyph-name="hyphen" horiz-adv-x="886" d="M129 458V673H757V458H129Z" />
<glyph unicode="." glyph-name="period" horiz-adv-x="523" d="M182 -15T135 29T87 148Q87 223 134 267T261 312Q341 312 388 267T435 148Q435 74 388 30T261 -15Q182 -15 135 29Z" />
<glyph unicode="/" glyph-name="slash" horiz-adv-x="727" d="M0 -240L468 1616H727L259 -240H0Z" />
<glyph unicode="0" glyph-name="zero" horiz-adv-x="1306" d="M388 -19T245 165T101 740Q101 1131 244 1315T653 1499Q919 1499 1061 1315T1204 740Q1204 350 1061 166T653 -19Q388 -19 245 165ZM747 202T810 252T907 420T941 738Q941 940 907 1059T810 1228T653
1278Q559 1278 496 1228T399 1060T365 742Q365 540 398 421T495 252T653 202Q747 202 810 252Z" />
<glyph unicode="1" glyph-name="one" horiz-adv-x="796" d="M469 1485H640V0H373V1164L27 921V1174L469 1485Z" />
<glyph unicode="2" glyph-name="two" horiz-adv-x="1042" d="M985 221V0H52V143L468 675Q566 801 607 889T648 1059Q648 1175 579 1228T361 1282Q274 1282 190 1267T34 1224V1443Q100 1468 198 1483T387 1499Q648 1499 780 1399T912 1086Q912 968 864 854T696
590L403 221H985Z" />
<glyph unicode="3" glyph-name="three" horiz-adv-x="1061" d="M838 736T917 644T996 407Q996 203 851 92T423 -19Q223 -19 47 34V237Q132 211 228 197T413 183Q744 183 744 422Q744 537 665 596T416 656H213V860H356Q526 860 608 918T691 1088Q691 1297 406 1297Q322
1297 237 1283T76 1242V1444Q146 1469 243 1484T433 1499Q686 1499 817 1398T948 1110Q948 984 880 894T689 767Q838 736 917 644Z" />
<glyph unicode="4" glyph-name="four" horiz-adv-x="1240" d="M1204 531V322H1006V0H765V322H41V468L577 1480H836L338 531H765L793 980H1006V531H1204Z" />
<glyph unicode="5" glyph-name="five" horiz-adv-x="1072" d="M624 869T760 816T959 669T1022 433Q1021 212 877 97T450 -19Q252 -19 73 37V240Q158 214 254 200T440 185Q608 185 688 245T769 427Q769 509 728 560T588 642T312 682L123 692L173 1480H961V1273H411L384
882L407 881Q624 869 760 816Z" />
<glyph unicode="6" glyph-name="six" horiz-adv-x="1214" d="M830 876T935 828T1099 681T1158 435Q1158 293 1098 191T927 35T667 -19Q406 -19 259 153T112 692Q112 1099 286 1299T794 1499Q969 1499 1085 1454V1247Q963 1293 806 1293Q590 1293 483 1170T372
783Q433 827 518 851T692 876Q830 876 935 828ZM781 177T848 239T915 427Q915 556 843 618T642 681Q570 681 500 660T373 595Q379 438 416 346T515 216T668 177Q781 177 848 239Z" />
<glyph unicode="7" glyph-name="seven" horiz-adv-x="994" d="M11 1480H936V1337L436 0H162L649 1259H11V1480Z" />
<glyph unicode="8" glyph-name="eight" horiz-adv-x="1306" d="M1087 706T1152 617T1217 397Q1217 274 1154 181T965 34T659 -19Q468 -19 340 28T150 163T87 369Q87 493 157 589T359 738Q238 802 184 890T130 1097Q130 1218 191 1309T373 1449T666 1499Q824 1499
938 1454T1112 1325T1173 1125Q1173 1010 1115 920T935 770Q1087 706 1152 617ZM524 1311T454 1257T384 1107Q384 1039 413 994T519 911T737 836L749 833Q850 885 895 949T940 1101Q940 1203 869 1257T662 1311Q524 1311 454 1257ZM812 169T889 224T966 381Q966
449 935 495T828 577T615 647L537 668Q439 627 389 556T338 398Q338 286 418 228T660 169Q812 169 889 224Z" />
<glyph unicode="9" glyph-name="nine" horiz-adv-x="1214" d="M808 1499T955 1327T1102 788Q1102 381 928 181T420 -19Q245 -19 129 26V233Q251 187 408 187Q624 187 731 310T842 697Q781 653 696 629T522 604Q384 604 279 652T115 799T56 1045Q56 1187 116 1289T287
1445T547 1499Q808 1499 955 1327ZM299 924T371 862T572 799Q644 799 714 820T841 885Q835 1042 798 1134T699 1264T546 1303Q433 1303 366 1241T299 1053Q299 924 371 862Z" />
<glyph unicode=":" glyph-name="colon" horiz-adv-x="523" d="M182 -15T135 29T87 148Q87 223 134 267T261 312Q341 312 388 267T435 148Q435 74 388 30T261 -15Q182 -15 135 29ZM182 779T135 823T87 942Q87 1017 134 1061T261 1106Q341 1106 388 1061T435 942Q435
868 388 824T261 779Q182 779 135 823Z" />
<glyph unicode=";" glyph-name="semicolon" horiz-adv-x="523" d="M343 312T388 259T434 99Q434 -13 398 -126T298 -332H147Q188 -238 210 -163T239 -14Q169 -8 128 35T87 149Q87 225 133 268T257 312Q343 312 388 259ZM182 779T135 823T87 942Q87 1017 134 1061T261
1106Q341 1106 388 1061T435 942Q435 868 388 824T261 779Q182 779 135 823Z" />
<glyph unicode="&lt;" glyph-name="less" horiz-adv-x="1092" d="M964 1211V1005L324 761L964 515V309L129 638V882L964 1211Z" />
<glyph unicode="=" glyph-name="equal" horiz-adv-x="1092" d="M129 872V1075H964V872H129ZM129 445V648H964V445H129Z" />
<glyph unicode="&gt;" glyph-name="greater" horiz-adv-x="1092" d="M129 1211L964 882V638L129 309V515L769 761L129 1005V1211Z" />
<glyph unicode="?" glyph-name="question" horiz-adv-x="961" d="M305 808Q436 840 511 879T618 969T650 1087Q650 1292 364 1292Q281 1292 196 1278T35 1236V1444Q105 1469 202 1484T392 1499Q645 1499 776 1398T907 1107Q907 949 815 847T531 679L511 425H350L305
808ZM352 -15T305 27T257 140Q257 212 303 254T431 297Q511 297 558 254T605 140Q605 71 558 28T431 -15Q352 -15 305 27Z" />
<glyph unicode="@" glyph-name="at" horiz-adv-x="2025" d="M1466 1498T1700 1268T1934 575Q1933 267 1821 124T1515 -19Q1411 -19 1340 18T1231 129H1216Q1176 54 1097 18T918 -19Q811 -19 733 18T614 125T572 290Q572 441 675 523T1001 624L1209 644V681Q1209
763 1183 809T1101 875T955 895Q888 895 811 882T663 844L664 1044Q737 1069 826 1083T999 1097Q1161 1097 1263 1056T1415 922T1465 671V289Q1465 219 1491 187T1571 155Q1747 155 1747 562Q1747 832 1668 1000T1428 1246T1020 1324Q773 1324 613 1244T373 987T293
522Q293 229 375 52T625 -205T1059 -286Q1271 -286 1492 -230V-405Q1280 -460 1059 -460Q581 -460 336 -221T91 520Q91 1018 330 1258T1020 1498Q1466 1498 1700 1268ZM1055 169T1112 192T1209 261V495L1024 477Q925 467 879 429T832 317Q832 244 876 207T999 169Q1055
169 1112 192Z" />
<glyph unicode="A" glyph-name="A" horiz-adv-x="1420" d="M1137 0L998 426H420L281 0H19L517 1480H903L1401 0H1137ZM489 640H928L708 1312L489 640Z" />
<glyph unicode="B" glyph-name="B" horiz-adv-x="1306" d="M1096 737T1171 647T1246 411Q1246 270 1176 176T951 34T544 -15Q451 -15 345 -8T146 11V1450Q248 1472 364 1484T596 1497Q912 1497 1058 1398T1204 1092Q1204 971 1141 883T958 764Q1096 737 1171 647ZM513
1299T407 1281V859H646Q810 859 881 912T953 1079Q953 1158 921 1206T818 1276T627 1299Q513 1299 407 1281ZM756 183T840 208T961 286T998 421Q998 543 922 599T677 656H407V193Q496 183 611 183Q756 183 840 208Z" />
<glyph unicode="C" glyph-name="C" horiz-adv-x="1206" d="M469 -19T280 162T91 737Q91 1119 284 1309T843 1499Q1007 1499 1161 1461V1239Q1017 1276 862 1276Q696 1276 588 1222T426 1051T371 741Q371 545 425 427T584 256T851 204Q1002 204 1161 253V31Q1087
7 1002 -6T828 -19Q469 -19 280 162Z" />
<glyph unicode="D" glyph-name="D" horiz-adv-x="1465" d="M340 -14T146 9V1450Q246 1471 362 1483T586 1496Q979 1496 1176 1310T1374 740Q1374 477 1281 311T1002 65T531 -14Q340 -14 146 9ZM769 205T879 259T1045 432T1100 741Q1100 930 1045 1048T881 1222T602
1278Q517 1278 413 1261V214Q490 205 597 205Q769 205 879 259Z" />
<glyph unicode="E" glyph-name="E" horiz-adv-x="1222" d="M410 215H1152V0H146V1480H1142V1265H410V865H1042V650H410V215Z" />
<glyph unicode="F" glyph-name="F" horiz-adv-x="1182" d="M1137 1261H413V841H1037V622H413V0H146V1480H1137V1261Z" />
<glyph unicode="G" glyph-name="G" horiz-adv-x="1397" d="M1262 720V16Q1075 -15 907 -15Q497 -15 295 168T91 737Q91 1121 296 1310T891 1499Q1063 1499 1222 1459V1237Q1070 1276 912 1276Q728 1276 609 1222T430 1049T370 734Q370 458 497 332T888 206Q945
206 1012 211V720H1262Z" />
<glyph unicode="H" glyph-name="H" horiz-adv-x="1498" d="M146 0V1480H413V876H1084V1480H1351V0H1084V640H413V0H146Z" />
<glyph unicode="I" glyph-name="I" horiz-adv-x="559" d="M146 0V1480H413V0H146Z" />
<glyph unicode="J" glyph-name="J" horiz-adv-x="559" d="M-17 -233Q73 -112 110 8T147 296V1480H413V289Q409 103 351 -46T154 -348L-17 -233Z" />
<glyph unicode="K" glyph-name="K" horiz-adv-x="1296" d="M1042 0L583 640H413V0H146V1480H413V875H584L1008 1480H1292L790 763L1334 0H1042Z" />
<glyph unicode="L" glyph-name="L" horiz-adv-x="1121" d="M146 0V1480H413V223H1111V0H146Z" />
<glyph unicode="M" glyph-name="M" horiz-adv-x="1836" d="M1363 1480H1686V0H1436V1118L1030 211H806L400 1097V0H150V1480H473L923 482L1363 1480Z" />
<glyph unicode="N" glyph-name="N" horiz-adv-x="1517" d="M1120 1480H1371V0H1101L398 1079V0H146V1480H416L1120 400V1480Z" />
<glyph unicode="O" glyph-name="O" horiz-adv-x="1519" d="M553 -19T404 63T173 315T91 740Q91 995 172 1164T404 1416T759 1499Q965 1499 1114 1417T1345 1165T1427 740Q1427 486 1345 316T1114 64T759 -19Q553 -19 404 63ZM950 199T1051 326T1153 734Q1153 1022
1051 1151T759 1281Q569 1281 468 1154T366 746Q366 457 467 328T759 199Q950 199 1051 326Z" />
<glyph unicode="P" glyph-name="P" horiz-adv-x="1287" d="M146 1455Q361 1497 569 1497Q890 1497 1048 1370T1207 973Q1207 714 1049 582T574 449Q523 449 413 455V0H146V1455ZM770 653T858 729T947 971Q947 1139 861 1216T592 1294Q499 1294 413 1280V663Q481
653 577 653Q770 653 858 729Z" />
<glyph unicode="Q" glyph-name="Q" horiz-adv-x="1519" d="M1427 428T1301 241T928 14Q1139 -46 1407 -74L1363 -285Q876 -217 599 -87T206 241T91 734Q91 992 172 1163T403 1416T759 1499Q965 1499 1114 1417T1345 1166T1427 740Q1427 428 1301 241ZM366 456T466
328T759 199Q950 199 1051 326T1153 734Q1153 1022 1051 1151T759 1281Q569 1281 468 1154T366 746Q366 456 466 328Z" />
<glyph unicode="R" glyph-name="R" horiz-adv-x="1352" d="M1030 0L623 569Q609 568 581 568Q521 568 409 574V0H146V1450Q365 1497 584 1497Q895 1497 1048 1384T1202 1035Q1203 873 1121 765T882 608L1323 0H1030ZM409 778Q504 769 586 769Q775 769 863 832T951
1034Q951 1172 869 1235T609 1298Q509 1298 409 1280V778Z" />
<glyph unicode="S" glyph-name="S" horiz-adv-x="1121" d="M387 -19T285 -3T93 43V262Q184 231 289 215T489 198Q646 198 719 251T792 406Q792 464 770 502T695 568T550 620L450 646Q254 695 158 797T62 1064Q62 1271 210 1385T646 1499Q740 1499 828 1488T987
1455V1236Q915 1258 830 1270T659 1282Q486 1282 407 1229T328 1078Q328 1023 348 986T416 922T547 872L647 847Q860 794 959 692T1059 424Q1059 286 992 186T796 34T489 -19Q387 -19 285 -3Z" />
<glyph unicode="T" glyph-name="T" horiz-adv-x="1247" d="M490 0V1257H14V1480H1233V1257H757V0H490Z" />
<glyph unicode="U" glyph-name="U" horiz-adv-x="1468" d="M428 -19T284 131T139 594V1480H406V567Q406 377 486 290T737 202Q906 202 986 289T1067 567V1480H1329V594Q1329 281 1186 131T737 -19Q428 -19 284 131Z" />
<glyph unicode="V" glyph-name="V" horiz-adv-x="1392" d="M1125 1480H1387L892 0H500L5 1480H285L703 203L1125 1480Z" />
<glyph unicode="W" glyph-name="W" horiz-adv-x="2223" d="M1930 1480H2184L1783 0H1439L1116 1190L784 0H440L39 1480H310L631 245L969 1480H1269L1601 234L1930 1480Z" />
<glyph unicode="X" glyph-name="X" horiz-adv-x="1340" d="M826 765L1355 0H1057L667 569L277 0H-17L512 762L13 1480H311L670 960L1029 1480H1320L826 765Z" />
<glyph unicode="Y" glyph-name="Y" horiz-adv-x="1247" d="M1280 1480L758 639V0H491V637L-44 1480H241L630 865L1014 1480H1280Z" />
<glyph unicode="Z" glyph-name="Z" horiz-adv-x="1209" d="M407 222H1148V0H61V147L791 1258H72V1480H1137V1333L407 222Z" />
<glyph unicode="[" glyph-name="bracketleft" horiz-adv-x="695" d="M166 -440V1616H727V1407H428V-231H722V-440H166Z" />
<glyph unicode="\" glyph-name="backslash" horiz-adv-x="729" d="M469 -240L0 1616H260L729 -240H469Z" />
<glyph unicode="]" glyph-name="bracketright" horiz-adv-x="695" d="M-27 -440V-231H267V1407H-32V1616H529V-440H-27Z" />
<glyph unicode="^" glyph-name="asciicircum" horiz-adv-x="1219" d="M1144 740H885L610 1255L334 740H76L481 1480H737L1144 740Z" />
<glyph unicode="_" glyph-name="underscore" horiz-adv-x="1179" d="M90 -209V-1H1089V-209H90Z" />
<glyph unicode="`" glyph-name="grave" horiz-adv-x="1100" d="M430 1240L170 1616H450L670 1240H430Z" />
<glyph unicode="a" glyph-name="a" horiz-adv-x="1087" d="M659 1108T762 1067T915 930T966 672V0H749L731 113H717Q668 48 591 15T419 -19Q312 -19 234 19T115 126T73 290Q73 442 177 525T506 626L710 645V688Q710 771 684 818T601 886T449 906Q382 906 304 895T154
860V1061Q228 1084 319 1096T493 1108Q659 1108 762 1067ZM558 167T612 189T710 259V491L531 475Q428 465 381 426T333 315Q333 243 375 205T500 167Q558 167 612 189Z" />
<glyph unicode="b" glyph-name="b" horiz-adv-x="1194" d="M419 -20T318 -6T130 37V1616H392V983H405Q455 1042 529 1075T695 1108Q814 1108 909 1052T1060 874T1116 567Q1116 275 967 128T521 -20Q419 -20 318 -6ZM699 182T775 268T852 546Q852 736 787 813T601
891Q541 891 486 869T392 803V201Q461 182 543 182Q699 182 775 268Z" />
<glyph unicode="c" glyph-name="c" horiz-adv-x="932" d="M352 -20T215 119T78 544Q78 831 224 969T651 1108Q778 1108 888 1082V872Q779 895 685 895Q568 895 494 860T384 749T348 547Q348 358 423 276T655 193Q706 193 761 202T888 232V22Q760 -20 616 -20Q352
-20 215 119Z" />
<glyph unicode="d" glyph-name="d" horiz-adv-x="1194" d="M394 -19T295 37T137 214T78 523Q78 811 225 960T656 1109Q723 1109 802 1098V1616H1064V0H843L827 115H813Q764 53 689 17T520 -19Q394 -19 295 37ZM653 197T709 221T802 294V891Q735 906 656 906Q497
906 420 821T342 544Q342 354 407 276T592 197Q653 197 709 221Z" />
<glyph unicode="e" glyph-name="e" horiz-adv-x="1081" d="M1016 467H341Q346 361 381 299T489 208T684 180Q804 180 958 218V19Q801 -20 648 -20Q453 -20 328 39T140 222T78 546Q78 729 135 855T300 1044T561 1108Q784 1108 900 965T1016 538V467ZM453 937T398
865T340 624H771Q768 793 716 865T559 937Q453 937 398 865Z" />
<glyph unicode="f" glyph-name="f" horiz-adv-x="772" d="M583 1426T527 1375T471 1213V1091H777V882H471V0H211V882H23V1091H211V1202Q211 1410 328 1523T666 1636Q746 1636 821 1624V1416Q753 1426 703 1426Q583 1426 527 1375Z" />
<glyph unicode="g" glyph-name="g" horiz-adv-x="1194" d="M415 -460T324 -449T152 -414V-206Q327 -256 483 -256Q595 -256 665 -228T768 -136T802 30V116H789Q738 57 665 24T499 -9Q382 -9 287 47T135 223T78 523Q78 811 228 959T674 1108Q772 1108 877 1093T1064
1051V77Q1064 -112 1003 -230T817 -404T502 -460Q415 -460 324 -449ZM653 206T708 228T802 294V889Q726 906 652 906Q497 906 420 820T342 546Q342 359 407 283T593 206Q653 206 708 228Z" />
<glyph unicode="h" glyph-name="h" horiz-adv-x="1192" d="M130 1616H392V977H405Q465 1041 544 1074T719 1108Q880 1108 975 1009T1071 695V0H809V679Q809 788 763 834T629 880Q563 880 499 853T392 770V0H130V1616Z" />
<glyph unicode="i" glyph-name="i" horiz-adv-x="523" d="M130 0V1091H393V0H130ZM179 1278T138 1314T96 1420Q96 1489 137 1526T262 1563Q345 1563 386 1526T428 1420Q428 1351 387 1315T262 1278Q179 1278 138 1314Z" />
<glyph unicode="j" glyph-name="j" horiz-adv-x="523" d="M-34 -355Q56 -234 93 -114T130 174V1091H393V186Q393 -8 334 -161T136 -469L-34 -355ZM176 1281T135 1317T93 1423Q93 1492 134 1529T259 1566Q342 1566 383 1529T425 1423Q425 1354 384 1318T259 1281Q176
1281 135 1317Z" />
<glyph unicode="k" glyph-name="k" horiz-adv-x="1130" d="M871 0L543 454H392V0H130V1616H392V666H541L842 1091H1124L758 565L1159 0H871Z" />
<glyph unicode="l" glyph-name="l" horiz-adv-x="523" d="M130 0V1616H392V0H130Z" />
<glyph unicode="m" glyph-name="m" horiz-adv-x="1767" d="M1458 1108T1552 1009T1646 694V0H1385V680Q1385 788 1342 834T1220 881Q1164 881 1110 857T1017 783Q1021 750 1021 701V0H764V680Q764 789 723 835T604 881Q544 881 487 853T392 768V0H130V1091H347L365
975H379Q438 1041 516 1074T688 1108Q780 1108 851 1073T965 962Q1034 1037 1119 1072T1295 1108Q1458 1108 1552 1009Z" />
<glyph unicode="n" glyph-name="n" horiz-adv-x="1192" d="M130 1091H347L365 976H379Q441 1040 525 1074T706 1108Q875 1108 973 1009T1071 694V0H809V679Q809 788 763 834T629 881Q563 881 499 854T392 771V0H130V1091Z" />
<glyph unicode="o" glyph-name="o" horiz-adv-x="1172" d="M347 -20T213 121T78 543Q78 826 210 967T586 1108Q829 1108 961 967T1094 544Q1094 356 1033 230T857 42T586 -20Q347 -20 213 121ZM707 182T768 264T830 542Q830 741 769 823T586 906Q465 906 404 824T342
546Q342 411 370 331T452 217T586 182Q707 182 768 264Z" />
<glyph unicode="p" glyph-name="p" horiz-adv-x="1194" d="M130 1091H351L368 974H381Q430 1036 505 1072T675 1108Q801 1108 900 1052T1057 875T1116 566Q1116 278 969 129T538 -20Q480 -20 392 -10V-440H130V1091ZM697 183T774 268T852 545Q852 736 787 814T602
892Q541 892 485 868T392 795V197Q462 183 538 183Q697 183 774 268Z" />
<glyph unicode="q" glyph-name="q" horiz-adv-x="1194" d="M802 105H789Q738 46 665 13T499 -20Q380 -20 285 37T134 215T78 521Q78 813 227 960T673 1108Q772 1108 876 1093T1064 1051V-440H802V105ZM653 197T708 219T802 285V889Q726 906 651 906Q497 906 420
820T342 542Q342 352 407 275T593 197Q653 197 708 219Z" />
<glyph unicode="r" glyph-name="r" horiz-adv-x="777" d="M130 1091H346L366 949H380Q428 1026 506 1065T679 1104Q722 1104 766 1097V859Q727 866 664 866Q586 866 511 834T392 743V0H130V1091Z" />
<glyph unicode="s" glyph-name="s" horiz-adv-x="952" d="M244 -20T97 26V222Q256 174 427 174Q543 174 596 208T650 309Q650 362 622 390T526 432L360 463Q209 493 140 568T71 771Q71 873 124 948T287 1066T557 1108Q708 1108 836 1074V879Q707 914 564 914Q317
914 317 778Q317 730 344 702T438 659L604 628Q754 598 824 526T895 319Q895 214 841 138T683 21T430 -20Q244 -20 97 26Z" />
<glyph unicode="t" glyph-name="t" horiz-adv-x="809" d="M707 198T780 212V2Q685 -20 591 -20Q203 -20 203 371V882H15V1091H203L249 1480H465V1091H770V882H465V413Q465 333 485 286T548 219T659 198Q707 198 780 212Z" />
<glyph unicode="u" glyph-name="u" horiz-adv-x="1183" d="M318 -19T220 80T121 394V1091H383V410Q383 301 428 255T558 208Q621 208 684 236T790 319V1091H1052V0H835L817 113H805Q741 48 660 15T488 -19Q318 -19 220 80Z" />
<glyph unicode="v" glyph-name="v" horiz-adv-x="1128" d="M864 1091H1123L728 0H399L4 1091H280L572 235L864 1091Z" />
<glyph unicode="w" glyph-name="w" horiz-adv-x="1771" d="M1480 1091H1721L1420 0H1125L888 841L647 0H352L50 1091H300L515 276L744 1091H1038L1263 284L1480 1091Z" />
<glyph unicode="x" glyph-name="x" horiz-adv-x="1083" d="M695 553L1084 0H793L539 368L284 0H1L387 549L8 1091H299L545 736L790 1091H1072L695 553Z" />
<glyph unicode="y" glyph-name="y" horiz-adv-x="1128" d="M864 1091H1123L568 -440H311L472 0H399L4 1091H280L569 227L864 1091Z" />
<glyph unicode="z" glyph-name="z" horiz-adv-x="981" d="M391 209H929V0H65V165L592 882H76V1091H918V926L391 209Z" />
<glyph unicode="{" glyph-name="braceleft" horiz-adv-x="735" d="M468 779T426 716T290 628Q383 602 425 539T468 372V-81Q468 -168 512 -207T646 -247H767V-448Q692 -460 605 -460Q407 -460 307 -366T206 -87V379Q206 450 169 486T63 523H19V732H63Q132 732
169 768T206 876V1263Q206 1447 306 1541T605 1636Q692 1636 767 1624V1423H646Q556 1423 512 1384T468 1257V883Q468 779 426 716Z" />
<glyph unicode="|" glyph-name="bar" horiz-adv-x="530" d="M146 -440V1616H384V-440H146Z" />
<glyph unicode="}" glyph-name="braceright" horiz-adv-x="735" d="M716 732V523H672Q603 523 566 487T529 379V-87Q529 -271 429 -365T130 -460Q43 -460 -32 -448V-247H89Q179 -247 223 -208T267 -81V372Q267 476 310 539T445 628Q353 653 310 716T267 883V1257Q267
1344 223 1383T89 1423H-32V1624Q43 1636 130 1636Q328 1636 428 1542T529 1263V876Q529 805 566 769T672 732H716Z" />
<glyph unicode="~" glyph-name="asciitilde" horiz-adv-x="1092" d="M685 599T639 614T524 662Q468 689 430 702T354 716Q289 716 235 690T129 607V819Q213 916 356 916Q409 916 456 900T569 852Q625 825 662 812T738 798Q804 798 858 824T964 908V695Q920 646
865 623T737 599Q685 599 639 614Z" />
<glyph unicode="&#xa0;" glyph-name="uni00A0" horiz-adv-x="498" />
<glyph unicode="&#xa1;" glyph-name="exclamdown" horiz-adv-x="563" d="M360 1106T407 1062T455 943Q455 869 408 824T281 779Q201 779 154 823T107 943Q107 1018 154 1062T281 1106Q360 1106 407 1062ZM202 644H363L420 136V-380H142V136L202 644Z" />
<glyph unicode="&#xa2;" glyph-name="cent" horiz-adv-x="937" d="M566 895T493 860T384 749T348 547Q348 358 423 276T655 193Q706 193 761 202T888 232V22Q801 -7 704 -16V-240H479V-9Q78 57 78 544Q78 1016 479 1093V1331H704V1107Q794 1103 888 1082V872Q778
895 683 895Q566 895 493 860Z" />
<glyph unicode="&#xa3;" glyph-name="sterling" horiz-adv-x="1316" d="M1251 214V0H75V214H280V651H75V849H280V1017Q280 1257 429 1378T875 1499Q965 1499 1052 1489T1208 1458V1239Q1137 1260 1053 1271T890 1282Q763 1282 687 1257T575 1175T539 1027V849H1022V651H539V214H1251Z"
/>
<glyph unicode="&#xa4;" glyph-name="currency" horiz-adv-x="1219" d="M1014 465L1126 357L993 224L884 336L803 433Q720 381 610 381Q500 381 416 433L335 336L226 224L94 357L205 465L304 547Q256 631 256 740Q256 847 305 932L205 1015L93 1123L225 1256L334
1144L416 1045Q500 1097 610 1097Q718 1097 803 1046L885 1144L994 1256L1127 1123L1014 1015L914 932Q963 847 963 740Q963 631 915 547L1014 465ZM415 643T469 587T610 531Q696 531 750 587T804 740Q804 833 752 891T612 949Q524 949 470 893T415 740Q415 643
469 587Z" />
<glyph unicode="&#xa5;" glyph-name="yen" horiz-adv-x="1270" d="M1293 1480L854 773H1084V613H770V435H1084V275H770V0H503V275H188V435H503V613H188V773H417L-31 1480H255L642 864L1027 1480H1293Z" />
<glyph unicode="&#xa6;" glyph-name="brokenbar" horiz-adv-x="530" d="M146 836V1616H384V836H146ZM146 -440V340H384V-440H146Z" />
<glyph unicode="&#xa7;" glyph-name="section" horiz-adv-x="1076" d="M975 584T869 496Q934 426 934 315Q934 211 881 136T721 21T460 -20Q287 -20 142 21V207Q293 165 458 165Q585 165 640 199T695 300Q695 354 667 382T571 425L376 464Q240 493 171 566T101
765Q101 894 206 982Q136 1052 136 1162Q136 1317 258 1407T630 1497Q772 1497 895 1469V1284Q775 1312 648 1312Q375 1312 375 1176Q375 1128 404 1099T497 1055L699 1017Q839 988 907 916T975 718Q975 584 869 496ZM685 591T705 585Q732 611 744 638T757 699Q757
759 725 793T616 843L421 882Q390 889 368 895Q319 843 319 779Q319 723 351 688T457 637L653 598Q685 591 705 585Z" />
<glyph unicode="&#xa8;" glyph-name="dieresis" horiz-adv-x="1100" d="M246 1282T208 1318T169 1420Q169 1485 207 1522T316 1559Q387 1559 425 1522T463 1420Q463 1355 425 1319T316 1282Q246 1282 208 1318ZM713 1282T675 1318T637 1420Q637 1485 675 1522T784
1559Q854 1559 892 1522T931 1420Q931 1355 893 1319T784 1282Q713 1282 675 1318Z" />
<glyph unicode="&#xa9;" glyph-name="copyright" horiz-adv-x="1677" d="M616 -22T447 73T184 340T91 740Q91 967 184 1139T446 1407T839 1502Q1061 1502 1230 1407T1493 1140T1586 740Q1586 513 1493 341T1231 73T839 -22Q616 -22 447 73ZM1022 124T1156 199T1363
414T1435 740Q1435 927 1363 1066T1157 1280T839 1356Q656 1356 521 1281T314 1066T242 740Q242 553 314 414T521 200T839 124Q1022 124 1156 199ZM765 324T671 371T526 511T475 733Q475 862 527 954T676 1095T910 1144Q1015 1144 1102 1119V954Q1008 976 927 976Q670
976 670 735Q670 615 732 554T910 492Q955 492 1000 499T1102 525V360Q1015 324 892 324Q765 324 671 371Z" />
<glyph unicode="&#xaa;" glyph-name="ordfeminine" horiz-adv-x="912" d="M554 1497T643 1463T777 1349T821 1135V610H618L600 700H588Q548 648 483 621T340 594Q248 594 183 625T83 712T49 844Q49 969 135 1035T409 1114L579 1127V1165Q579 1221 559 1253T492
1300T365 1315Q308 1315 244 1306T119 1278V1458Q184 1477 261 1487T409 1497Q554 1497 643 1463ZM466 759T507 774T579 823V1000L443 990Q362 983 326 955T289 873Q289 817 323 788T425 759Q466 759 507 774Z" />
<glyph unicode="&#xab;" glyph-name="guillemotleft" horiz-adv-x="1145" d="M345 135L94 565L345 996H613L362 565L613 135H345ZM823 135L572 565L823 996H1091L840 565L1091 135H823Z" />
<glyph unicode="&#xac;" glyph-name="logicalnot" horiz-adv-x="1333" d="M1000 197V659H129V861H1212V197H1000Z" />
<glyph unicode="&#xad;" glyph-name="uni00AD" horiz-adv-x="886" d="M129 458V673H757V458H129Z" />
<glyph unicode="&#xae;" glyph-name="registered" horiz-adv-x="1461" d="M909 1498T1047 1420T1263 1202T1340 882Q1340 702 1263 563T1048 346T730 268Q551 268 413 345T197 562T120 882Q120 1062 197 1202T412 1420T730 1498Q909 1498 1047 1420ZM877 383T987
444T1158 619T1218 882Q1218 1033 1158 1146T988 1321T730 1383Q584 1383 474 1321T303 1146T242 882Q242 732 302 619T473 445T730 383Q877 383 987 444ZM974 862T851 822L1003 600H870L729 804H720H638L635 600H515V1192H720Q846 1192 910 1143T974 997Q974 862
851 822ZM739 904Q799 904 828 927T857 997Q857 1092 739 1092H638V904H739Z" />
<glyph unicode="&#xaf;" glyph-name="overscore" horiz-adv-x="1100" d="M212 1341V1502H888V1341H212Z" />
<glyph unicode="&#xb0;" glyph-name="degree" horiz-adv-x="974" d="M382 773T299 820T168 949T120 1136Q120 1240 167 1322T298 1451T487 1498Q592 1498 675 1452T806 1323T853 1136Q853 1032 806 950T676 820T487 773Q382 773 299 820ZM544 930T589 955T660
1027T686 1136Q686 1198 661 1244T590 1315T487 1340Q430 1340 385 1316T314 1245T288 1136Q288 1074 313 1027T384 955T487 930Q544 930 589 955Z" />
<glyph unicode="&#xb1;" glyph-name="plusminus" horiz-adv-x="1092" d="M440 361V670H129V873H440V1182H652V873H964V670H652V361H440ZM129 1V203H964V1H129Z" />
<glyph unicode="&#xb2;" glyph-name="uni00B2" horiz-adv-x="831" d="M749 36V-136H84V-25L371 326Q438 408 466 464T495 571Q495 643 449 676T299 710Q240 710 180 700T71 670V840Q121 858 189 867T328 877Q515 877 610 808T705 591Q704 513 669 437T552 262L365
36H749Z" />
<glyph unicode="&#xb3;" glyph-name="uni00B3" horiz-adv-x="831" d="M640 362T693 301T747 141Q747 2 643 -73T337 -149Q195 -149 69 -114V44Q130 26 198 17T327 7Q548 7 548 154Q548 224 498 260T338 297H179V454H303Q408 454 459 490T511 593Q511 722 318 722Q260
722 199 712T87 683V840Q136 857 205 867T342 877Q526 877 619 809T713 610Q713 527 667 467T540 382Q640 362 693 301Z" />
<glyph unicode="&#xb4;" glyph-name="acute" horiz-adv-x="1100" d="M430 1240L650 1616H930L670 1240H430Z" />
<glyph unicode="&#xb5;" glyph-name="uni00B5" horiz-adv-x="1183" d="M1052 1091V0H835L817 113H805Q751 48 683 15T538 -19Q445 -19 383 24V-440H121V1090H383V410Q383 301 428 255T558 208Q621 208 684 236T790 319V1091H1052Z" />
<glyph unicode="&#xb6;" glyph-name="paragraph" horiz-adv-x="1287" d="M629 454Q569 449 522 449Q300 449 190 581T79 973Q79 1244 192 1370T542 1497Q690 1497 820 1480V0H629V454ZM950 0V1480H1141V0H950Z" />
<glyph unicode="&#xb7;" glyph-name="middot" horiz-adv-x="523" d="M182 396T135 440T87 559Q87 635 134 679T261 723Q341 723 388 679T435 559Q435 485 388 441T261 396Q182 396 135 440Z" />
<glyph unicode="&#xb8;" glyph-name="cedilla" horiz-adv-x="1100" d="M701 -105T742 -148T783 -261Q783 -341 723 -386T547 -432Q499 -432 453 -424T370 -400V-292Q409 -309 453 -317T537 -326Q589 -326 615 -308T642 -251Q642 -173 536 -173H493V20H623V-93Q701
-105 742 -148Z" />
<glyph unicode="&#xb9;" glyph-name="uni00B9" horiz-adv-x="831" d="M563 36H770V-136H134V36H352V632L135 487V674L426 868H563V36Z" />
<glyph unicode="&#xba;" glyph-name="ordmasculine" horiz-adv-x="986" d="M285 594T171 710T56 1047Q56 1268 170 1382T493 1497Q700 1497 815 1382T930 1047Q930 827 815 711T493 594Q285 594 171 710ZM587 777T636 839T686 1047Q686 1193 637 1253T493 1314Q399
1314 350 1253T300 1047Q300 901 349 839T493 777Q587 777 636 839Z" />
<glyph unicode="&#xbb;" glyph-name="guillemotright" horiz-adv-x="1145" d="M54 135L305 565L54 996H322L573 565L322 135H54ZM532 135L783 565L532 996H800L1051 565L800 135H532Z" />
<glyph unicode="&#xbc;" glyph-name="onequarter" horiz-adv-x="1999" d="M563 788H770V616H134V788H352V1384L135 1239V1426L426 1620H563V788ZM489 -136L1290 1616H1510L709 -136H489ZM1975 234V73H1847V-136H1661V73H1195V187L1523 864H1721L1417 234H1661L1698
526H1847V234H1975Z" />
<glyph unicode="&#xbd;" glyph-name="onehalf" horiz-adv-x="1999" d="M563 788H770V616H134V788H352V1384L135 1239V1426L426 1620H563V788ZM489 -136L1290 1616H1510L709 -136H489ZM1917 36V-136H1252V-25L1539 326Q1606 408 1634 464T1663 571Q1663 643 1617
676T1467 710Q1408 710 1348 700T1239 670V840Q1289 858 1357 867T1496 877Q1683 877 1778 808T1873 591Q1872 513 1837 437T1720 262L1533 36H1917Z" />
<glyph unicode="&#xbe;" glyph-name="threequarters" horiz-adv-x="1999" d="M640 1114T693 1053T747 893Q747 754 643 679T337 603Q195 603 69 638V796Q130 778 198 769T327 759Q548 759 548 906Q548 976 498 1012T338 1049H179V1206H303Q408 1206 459 1242T511
1345Q511 1474 318 1474Q260 1474 199 1464T87 1435V1592Q136 1609 205 1619T342 1629Q526 1629 619 1561T713 1362Q713 1279 667 1219T540 1134Q640 1114 693 1053ZM489 -136L1290 1616H1510L709 -136H489ZM1975 234V73H1847V-136H1661V73H1195V187L1523 864H1721L1417
234H1661L1698 526H1847V234H1975Z" />
<glyph unicode="&#xbf;" glyph-name="questiondown" horiz-adv-x="961" d="M609 1106T656 1064T704 950Q704 878 658 836T530 794Q450 794 403 837T356 950Q356 1020 403 1063T530 1106Q609 1106 656 1064ZM656 283Q525 251 450 212T343 123T311 8Q311 -90 382
-141T597 -192Q681 -192 766 -178T926 -137V-345Q856 -370 759 -385T569 -400Q316 -400 185 -299T54 -12Q54 143 146 245T430 411L450 666H611L656 283Z" />
<glyph unicode="&#xc0;" glyph-name="Agrave" horiz-adv-x="1420" d="M1137 0L998 426H420L281 0H19L517 1480H903L1401 0H1137ZM489 640H928L708 1312L489 640ZM592 1600L373 1896H650L828 1600H592Z" />
<glyph unicode="&#xc1;" glyph-name="Aacute" horiz-adv-x="1420" d="M1137 0L998 426H420L281 0H19L517 1480H903L1401 0H1137ZM489 640H928L708 1312L489 640ZM591 1600L769 1896H1046L827 1600H591Z" />
<glyph unicode="&#xc2;" glyph-name="Acircumflex" horiz-adv-x="1420" d="M1137 0L998 426H420L281 0H19L517 1480H903L1401 0H1137ZM489 640H928L708 1312L489 640ZM1076 1600H870L710 1795L550 1600H344L596 1896H824L1076 1600Z" />
<glyph unicode="&#xc3;" glyph-name="Atilde" horiz-adv-x="1420" d="M1137 0L998 426H420L281 0H19L517 1480H903L1401 0H1137ZM489 640H928L708 1312L489 640ZM830 1637T791 1647T694 1677Q641 1696 609 1704T540 1713Q483 1713 439 1696T351 1643V1799Q388
1835 434 1852T545 1869Q590 1869 630 1859T726 1828Q779 1809 811 1801T880 1792Q937 1792 981 1809T1069 1862V1706Q1032 1670 986 1654T875 1637Q830 1637 791 1647Z" />
<glyph unicode="&#xc4;" glyph-name="Adieresis" horiz-adv-x="1420" d="M1137 0L998 426H420L281 0H19L517 1480H903L1401 0H1137ZM489 640H928L708 1312L489 640ZM391 1625T354 1658T316 1751Q316 1811 353 1844T462 1877Q533 1877 571 1844T609 1751Q609 1691
571 1658T462 1625Q391 1625 354 1658ZM887 1625T849 1658T811 1751Q811 1811 849 1844T958 1877Q1029 1877 1066 1844T1104 1751Q1104 1691 1067 1658T958 1625Q887 1625 849 1658Z" />
<glyph unicode="&#xc5;" glyph-name="Aring" horiz-adv-x="1420" d="M1137 0L998 426H420L281 0H19L517 1480H903L1401 0H1137ZM489 640H928L708 1312L489 640ZM653 1506T606 1532T531 1604T504 1709Q504 1767 531 1813T605 1886T712 1913Q771 1913 818 1887T893
1814T920 1709Q920 1651 893 1605T819 1532T712 1506Q653 1506 606 1532ZM757 1604T785 1632T814 1709Q814 1757 786 1785T712 1814Q666 1814 638 1786T610 1709Q610 1661 638 1633T712 1604Q757 1604 785 1632Z" />
<glyph unicode="&#xc6;" glyph-name="AE" horiz-adv-x="1950" d="M1212 215H1879V0H964L934 425H423L282 0H19L523 1480H1869V1265H1132L1162 865H1769V650H1179L1212 215ZM495 641H918L873 1265H703L495 641Z" />
<glyph unicode="&#xc7;" glyph-name="Ccedilla" horiz-adv-x="1206" d="M696 1276T588 1222T426 1051T371 741Q371 545 425 427T584 256T851 204Q1002 204 1161 253V31Q1087 7 1002 -6T828 -19H791V-92Q880 -102 926 -144T973 -259Q973 -342 909 -387T719 -432Q613
-432 520 -399V-291Q612 -326 707 -326Q768 -326 799 -308T831 -251Q831 -173 706 -173H660V-8Q381 31 236 212T91 737Q91 1119 284 1309T843 1499Q1007 1499 1161 1461V1239Q1017 1276 862 1276Q696 1276 588 1222Z" />
<glyph unicode="&#xc8;" glyph-name="Egrave" horiz-adv-x="1222" d="M410 215H1152V0H146V1480H1142V1265H410V865H1042V650H410V215ZM548 1600L329 1896H606L784 1600H548Z" />
<glyph unicode="&#xc9;" glyph-name="Eacute" horiz-adv-x="1222" d="M410 215H1152V0H146V1480H1142V1265H410V865H1042V650H410V215ZM547 1600L725 1896H1002L783 1600H547Z" />
<glyph unicode="&#xca;" glyph-name="Ecircumflex" horiz-adv-x="1222" d="M410 215H1152V0H146V1480H1142V1265H410V865H1042V650H410V215ZM1032 1600H826L666 1795L506 1600H300L552 1896H780L1032 1600Z" />
<glyph unicode="&#xcb;" glyph-name="Edieresis" horiz-adv-x="1222" d="M410 215H1152V0H146V1480H1142V1265H410V865H1042V650H410V215ZM347 1625T310 1658T272 1751Q272 1811 309 1844T418 1877Q489 1877 527 1844T565 1751Q565 1691 527 1658T418 1625Q347
1625 310 1658ZM843 1625T805 1658T767 1751Q767 1811 805 1844T914 1877Q985 1877 1022 1844T1060 1751Q1060 1691 1023 1658T914 1625Q843 1625 805 1658Z" />
<glyph unicode="&#xcc;" glyph-name="Igrave" horiz-adv-x="559" d="M146 0V1480H413V0H146ZM162 1600L-57 1896H220L398 1600H162Z" />
<glyph unicode="&#xcd;" glyph-name="Iacute" horiz-adv-x="559" d="M146 0V1480H413V0H146ZM161 1600L339 1896H616L397 1600H161Z" />
<glyph unicode="&#xce;" glyph-name="Icircumflex" horiz-adv-x="559" d="M146 0V1480H413V0H146ZM646 1600H440L280 1795L120 1600H-86L166 1896H394L646 1600Z" />
<glyph unicode="&#xcf;" glyph-name="Idieresis" horiz-adv-x="559" d="M146 0V1480H413V0H146ZM-39 1625T-76 1658T-114 1751Q-114 1811 -77 1844T32 1877Q103 1877 141 1844T179 1751Q179 1691 141 1658T32 1625Q-39 1625 -76 1658ZM457 1625T419 1658T381 1751Q381
1811 419 1844T528 1877Q599 1877 636 1844T674 1751Q674 1691 637 1658T528 1625Q457 1625 419 1658Z" />
<glyph unicode="&#xd0;" glyph-name="Eth" horiz-adv-x="1465" d="M979 1496T1176 1310T1374 740Q1374 477 1281 311T1002 65T531 -14Q340 -14 146 9V675H2V849H146V1450Q246 1471 362 1483T586 1496Q979 1496 1176 1310ZM769 205T879 259T1045 432T1100 741Q1100
930 1045 1048T881 1222T602 1278Q517 1278 413 1261V849H706V675H413V214Q490 205 597 205Q769 205 879 259Z" />
<glyph unicode="&#xd1;" glyph-name="Ntilde" horiz-adv-x="1517" d="M1120 1480H1371V0H1101L398 1079V0H146V1480H416L1120 400V1480ZM879 1637T840 1647T743 1677Q690 1696 658 1704T589 1713Q532 1713 488 1696T400 1643V1799Q437 1835 483 1852T594 1869Q639
1869 679 1859T775 1828Q828 1809 860 1801T929 1792Q986 1792 1030 1809T1118 1862V1706Q1081 1670 1035 1654T924 1637Q879 1637 840 1647Z" />
<glyph unicode="&#xd2;" glyph-name="Ograve" horiz-adv-x="1519" d="M553 -19T404 63T173 315T91 740Q91 995 172 1164T404 1416T759 1499Q965 1499 1114 1417T1345 1165T1427 740Q1427 486 1345 316T1114 64T759 -19Q553 -19 404 63ZM950 199T1051 326T1153
734Q1153 1022 1051 1151T759 1281Q569 1281 468 1154T366 746Q366 457 467 328T759 199Q950 199 1051 326ZM641 1600L422 1896H699L877 1600H641Z" />
<glyph unicode="&#xd3;" glyph-name="Oacute" horiz-adv-x="1519" d="M553 -19T404 63T173 315T91 740Q91 995 172 1164T404 1416T759 1499Q965 1499 1114 1417T1345 1165T1427 740Q1427 486 1345 316T1114 64T759 -19Q553 -19 404 63ZM950 199T1051 326T1153
734Q1153 1022 1051 1151T759 1281Q569 1281 468 1154T366 746Q366 457 467 328T759 199Q950 199 1051 326ZM640 1600L818 1896H1095L876 1600H640Z" />
<glyph unicode="&#xd4;" glyph-name="Ocircumflex" horiz-adv-x="1519" d="M553 -19T404 63T173 315T91 740Q91 995 172 1164T404 1416T759 1499Q965 1499 1114 1417T1345 1165T1427 740Q1427 486 1345 316T1114 64T759 -19Q553 -19 404 63ZM950 199T1051 326T1153
734Q1153 1022 1051 1151T759 1281Q569 1281 468 1154T366 746Q366 457 467 328T759 199Q950 199 1051 326ZM1125 1600H919L759 1795L599 1600H393L645 1896H873L1125 1600Z" />
<glyph unicode="&#xd5;" glyph-name="Otilde" horiz-adv-x="1519" d="M553 -19T404 63T173 315T91 740Q91 995 172 1164T404 1416T759 1499Q965 1499 1114 1417T1345 1165T1427 740Q1427 486 1345 316T1114 64T759 -19Q553 -19 404 63ZM950 199T1051 326T1153
734Q1153 1022 1051 1151T759 1281Q569 1281 468 1154T366 746Q366 457 467 328T759 199Q950 199 1051 326ZM879 1637T840 1647T743 1677Q690 1696 658 1704T589 1713Q532 1713 488 1696T400 1643V1799Q437 1835 483 1852T594 1869Q639 1869 679 1859T775 1828Q828
1809 860 1801T929 1792Q986 1792 1030 1809T1118 1862V1706Q1081 1670 1035 1654T924 1637Q879 1637 840 1647Z" />
<glyph unicode="&#xd6;" glyph-name="Odieresis" horiz-adv-x="1519" d="M553 -19T404 63T173 315T91 740Q91 995 172 1164T404 1416T759 1499Q965 1499 1114 1417T1345 1165T1427 740Q1427 486 1345 316T1114 64T759 -19Q553 -19 404 63ZM950 199T1051 326T1153
734Q1153 1022 1051 1151T759 1281Q569 1281 468 1154T366 746Q366 457 467 328T759 199Q950 199 1051 326ZM440 1625T403 1658T365 1751Q365 1811 402 1844T511 1877Q582 1877 620 1844T658 1751Q658 1691 620 1658T511 1625Q440 1625 403 1658ZM936 1625T898
1658T860 1751Q860 1811 898 1844T1007 1877Q1078 1877 1115 1844T1153 1751Q1153 1691 1116 1658T1007 1625Q936 1625 898 1658Z" />
<glyph unicode="&#xd7;" glyph-name="multiply" horiz-adv-x="1027" d="M241 345L98 487L371 760L98 1033L241 1175L513 903L786 1175L929 1033L656 760L929 487L786 345L513 617L241 345Z" />
<glyph unicode="&#xd8;" glyph-name="Oslash" horiz-adv-x="1519" d="M1427 1093T1427 740Q1427 486 1345 316T1114 64T759 -19Q515 -19 356 93L253 -41L139 49L249 193Q91 387 91 740Q91 995 172 1164T404 1416T759 1499Q1001 1499 1162 1387L1264 1521L1379
1431L1269 1287Q1427 1093 1427 740ZM366 540T418 415L1014 1193Q919 1281 759 1281Q569 1281 468 1154T366 746Q366 540 418 415ZM950 199T1051 326T1153 734Q1153 937 1100 1066L504 287Q596 199 759 199Q950 199 1051 326Z" />
<glyph unicode="&#xd9;" glyph-name="Ugrave" horiz-adv-x="1468" d="M428 -19T284 131T139 594V1480H406V567Q406 377 486 290T737 202Q906 202 986 289T1067 567V1480H1329V594Q1329 281 1186 131T737 -19Q428 -19 284 131ZM619 1600L400 1896H677L855 1600H619Z" />
<glyph unicode="&#xda;" glyph-name="Uacute" horiz-adv-x="1468" d="M428 -19T284 131T139 594V1480H406V567Q406 377 486 290T737 202Q906 202 986 289T1067 567V1480H1329V594Q1329 281 1186 131T737 -19Q428 -19 284 131ZM618 1600L796 1896H1073L854 1600H618Z" />
<glyph unicode="&#xdb;" glyph-name="Ucircumflex" horiz-adv-x="1468" d="M428 -19T284 131T139 594V1480H406V567Q406 377 486 290T737 202Q906 202 986 289T1067 567V1480H1329V594Q1329 281 1186 131T737 -19Q428 -19 284 131ZM1103 1600H897L737 1795L577
1600H371L623 1896H851L1103 1600Z" />
<glyph unicode="&#xdc;" glyph-name="Udieresis" horiz-adv-x="1468" d="M428 -19T284 131T139 594V1480H406V567Q406 377 486 290T737 202Q906 202 986 289T1067 567V1480H1329V594Q1329 281 1186 131T737 -19Q428 -19 284 131ZM418 1625T381 1658T343 1751Q343
1811 380 1844T489 1877Q560 1877 598 1844T636 1751Q636 1691 598 1658T489 1625Q418 1625 381 1658ZM914 1625T876 1658T838 1751Q838 1811 876 1844T985 1877Q1056 1877 1093 1844T1131 1751Q1131 1691 1094 1658T985 1625Q914 1625 876 1658Z" />
<glyph unicode="&#xdd;" glyph-name="Yacute" horiz-adv-x="1247" d="M1280 1480L758 639V0H491V637L-44 1480H241L630 865L1014 1480H1280ZM505 1600L683 1896H960L741 1600H505Z" />
<glyph unicode="&#xde;" glyph-name="Thorn" horiz-adv-x="1297" d="M146 1480H413V1273Q492 1284 573 1284Q892 1284 1049 1157T1207 760Q1207 501 1050 369T576 236Q523 236 413 242V0H146V1480ZM770 440T858 516T947 758Q947 926 861 1003T592 1081Q499 1081
413 1067V449Q482 440 577 440Q770 440 858 516Z" />
<glyph unicode="&#xdf;" glyph-name="germandbls" horiz-adv-x="1506" d="M1310 598T1380 526T1450 319Q1450 214 1395 138T1233 21T970 -20Q889 -20 807 -10T652 21V216Q727 196 809 185T967 174Q1093 174 1148 208T1204 309Q1204 362 1176 390T1081 432L915
463Q764 492 695 567T626 770Q626 872 679 946T837 1060T1096 1100H1124Q1126 1134 1126 1151Q1126 1308 1044 1379T816 1451Q644 1451 559 1358T473 1066V0H211V878H23V1091H211Q216 1266 287 1388T488 1573T798 1636Q954 1636 1070 1582T1251 1416T1316 1131Q1316
1025 1285 903Q1216 914 1131 914Q872 914 872 778Q872 730 900 702T992 659L1159 628Q1310 598 1380 526Z" />
<glyph unicode="&#xe0;" glyph-name="agrave" horiz-adv-x="1087" d="M659 1108T762 1067T915 930T966 672V0H749L731 113H717Q668 48 591 15T419 -19Q312 -19 234 19T115 126T73 290Q73 442 177 525T506 626L710 645V688Q710 771 684 818T601 886T449 906Q382
906 304 895T154 860V1061Q228 1084 319 1096T493 1108Q659 1108 762 1067ZM558 167T612 189T710 259V491L531 475Q428 465 381 426T333 315Q333 243 375 205T500 167Q558 167 612 189ZM420 1240L160 1616H440L660 1240H420Z" />
<glyph unicode="&#xe1;" glyph-name="aacute" horiz-adv-x="1087" d="M659 1108T762 1067T915 930T966 672V0H749L731 113H717Q668 48 591 15T419 -19Q312 -19 234 19T115 126T73 290Q73 442 177 525T506 626L710 645V688Q710 771 684 818T601 886T449 906Q382
906 304 895T154 860V1061Q228 1084 319 1096T493 1108Q659 1108 762 1067ZM558 167T612 189T710 259V491L531 475Q428 465 381 426T333 315Q333 243 375 205T500 167Q558 167 612 189ZM420 1240L640 1616H920L660 1240H420Z" />
<glyph unicode="&#xe2;" glyph-name="acircumflex" horiz-adv-x="1087" d="M659 1108T762 1067T915 930T966 672V0H749L731 113H717Q668 48 591 15T419 -19Q312 -19 234 19T115 126T73 290Q73 442 177 525T506 626L710 645V688Q710 771 684 818T601 886T449 906Q382
906 304 895T154 860V1061Q228 1084 319 1096T493 1108Q659 1108 762 1067ZM558 167T612 189T710 259V491L531 475Q428 465 381 426T333 315Q333 243 375 205T500 167Q558 167 612 189ZM879 1240H686L540 1491L394 1240H201L431 1616H649L879 1240Z" />
<glyph unicode="&#xe3;" glyph-name="atilde" horiz-adv-x="1087" d="M659 1108T762 1067T915 930T966 672V0H749L731 113H717Q668 48 591 15T419 -19Q312 -19 234 19T115 126T73 290Q73 442 177 525T506 626L710 645V688Q710 771 684 818T601 886T449 906Q382
906 304 895T154 860V1061Q228 1084 319 1096T493 1108Q659 1108 762 1067ZM558 167T612 189T710 259V491L531 475Q428 465 381 426T333 315Q333 243 375 205T500 167Q558 167 612 189ZM651 1307T614 1319T524 1354Q479 1375 447 1385T383 1396Q331 1396 288 1377T202
1314V1483Q238 1520 283 1538T388 1556Q429 1556 466 1544T556 1509Q603 1488 634 1478T697 1468Q750 1468 792 1487T878 1550V1381Q842 1343 797 1325T692 1307Q651 1307 614 1319Z" />
<glyph unicode="&#xe4;" glyph-name="adieresis" horiz-adv-x="1087" d="M659 1108T762 1067T915 930T966 672V0H749L731 113H717Q668 48 591 15T419 -19Q312 -19 234 19T115 126T73 290Q73 442 177 525T506 626L710 645V688Q710 771 684 818T601 886T449 906Q382
906 304 895T154 860V1061Q228 1084 319 1096T493 1108Q659 1108 762 1067ZM558 167T612 189T710 259V491L531 475Q428 465 381 426T333 315Q333 243 375 205T500 167Q558 167 612 189ZM236 1282T198 1318T159 1420Q159 1485 197 1522T306 1559Q377 1559 415 1522T453
1420Q453 1355 415 1319T306 1282Q236 1282 198 1318ZM703 1282T665 1318T627 1420Q627 1485 665 1522T774 1559Q844 1559 882 1522T921 1420Q921 1355 883 1319T774 1282Q703 1282 665 1318Z" />
<glyph unicode="&#xe5;" glyph-name="aring" horiz-adv-x="1087" d="M659 1108T762 1067T915 930T966 672V0H749L731 113H717Q668 48 591 15T419 -19Q312 -19 234 19T115 126T73 290Q73 442 177 525T506 626L710 645V688Q710 771 684 818T601 886T449 906Q382
906 304 895T154 860V1061Q228 1084 319 1096T493 1108Q659 1108 762 1067ZM558 167T612 189T710 259V491L531 475Q428 465 381 426T333 315Q333 243 375 205T500 167Q558 167 612 189ZM481 1235T434 1261T359 1334T332 1439Q332 1497 359 1543T433 1615T540 1642Q599
1642 646 1616T721 1543T748 1439Q748 1381 721 1335T647 1262T540 1235Q481 1235 434 1261ZM586 1334T614 1362T642 1439Q642 1487 614 1515T540 1544Q495 1544 467 1516T438 1439Q438 1391 466 1363T540 1334Q586 1334 614 1362Z" />
<glyph unicode="&#xe6;" glyph-name="ae" horiz-adv-x="1699" d="M1634 467H967Q972 361 1007 299T1113 208T1304 180Q1422 180 1576 218V19Q1420 -20 1269 -20Q1107 -20 995 21T816 151Q737 60 643 21T442 -19Q325 -19 242 18T116 126T73 291Q73 447 182 535T522
624H712V688Q712 771 685 818T600 886T448 906Q382 906 304 895T155 860V1061Q232 1084 317 1096T483 1108Q625 1108 718 1073T862 960Q919 1033 1003 1070T1193 1108Q1404 1108 1519 965T1634 539V467ZM1077 937T1023 865T966 624H1389Q1385 793 1334 865T1180
937Q1077 937 1023 865ZM572 167T632 195T746 290Q722 366 714 472H545Q333 472 333 312Q333 241 376 204T503 167Q572 167 632 195Z" />
<glyph unicode="&#xe7;" glyph-name="ccedilla" horiz-adv-x="932" d="M568 895T494 860T384 749T348 547Q348 358 423 276T655 193Q706 193 761 202T888 232V22Q760 -20 616 -20H614V-93Q692 -105 733 -148T774 -261Q774 -341 714 -386T538 -432Q490 -432 444
-424T361 -400V-292Q400 -309 444 -317T528 -326Q580 -326 606 -308T633 -251Q633 -173 527 -173H484V-10Q285 22 182 159T78 544Q78 831 224 969T651 1108Q778 1108 888 1082V872Q779 895 685 895Q568 895 494 860Z" />
<glyph unicode="&#xe8;" glyph-name="egrave" horiz-adv-x="1081" d="M1016 467H341Q346 361 381 299T489 208T684 180Q804 180 958 218V19Q801 -20 648 -20Q453 -20 328 39T140 222T78 546Q78 729 135 855T300 1044T561 1108Q784 1108 900 965T1016 538V467ZM453
937T398 865T340 624H771Q768 793 716 865T559 937Q453 937 398 865ZM437 1240L177 1616H457L677 1240H437Z" />
<glyph unicode="&#xe9;" glyph-name="eacute" horiz-adv-x="1081" d="M1016 467H341Q346 361 381 299T489 208T684 180Q804 180 958 218V19Q801 -20 648 -20Q453 -20 328 39T140 222T78 546Q78 729 135 855T300 1044T561 1108Q784 1108 900 965T1016 538V467ZM453
937T398 865T340 624H771Q768 793 716 865T559 937Q453 937 398 865ZM437 1240L657 1616H937L677 1240H437Z" />
<glyph unicode="&#xea;" glyph-name="ecircumflex" horiz-adv-x="1081" d="M1016 467H341Q346 361 381 299T489 208T684 180Q804 180 958 218V19Q801 -20 648 -20Q453 -20 328 39T140 222T78 546Q78 729 135 855T300 1044T561 1108Q784 1108 900 965T1016 538V467ZM453
937T398 865T340 624H771Q768 793 716 865T559 937Q453 937 398 865ZM896 1240H703L557 1491L411 1240H218L448 1616H666L896 1240Z" />
<glyph unicode="&#xeb;" glyph-name="edieresis" horiz-adv-x="1081" d="M1016 467H341Q346 361 381 299T489 208T684 180Q804 180 958 218V19Q801 -20 648 -20Q453 -20 328 39T140 222T78 546Q78 729 135 855T300 1044T561 1108Q784 1108 900 965T1016 538V467ZM453
937T398 865T340 624H771Q768 793 716 865T559 937Q453 937 398 865ZM253 1282T215 1318T176 1420Q176 1485 214 1522T323 1559Q394 1559 432 1522T470 1420Q470 1355 432 1319T323 1282Q253 1282 215 1318ZM720 1282T682 1318T644 1420Q644 1485 682 1522T791
1559Q861 1559 899 1522T938 1420Q938 1355 900 1319T791 1282Q720 1282 682 1318Z" />
<glyph unicode="&#xec;" glyph-name="igrave" horiz-adv-x="523" d="M130 0V1091H393V0H130ZM142 1240L-118 1616H162L382 1240H142Z" />
<glyph unicode="&#xed;" glyph-name="iacute" horiz-adv-x="523" d="M130 0V1091H393V0H130ZM142 1240L362 1616H642L382 1240H142Z" />
<glyph unicode="&#xee;" glyph-name="icircumflex" horiz-adv-x="523" d="M130 0V1091H393V0H130ZM601 1240H408L262 1491L116 1240H-77L153 1616H371L601 1240Z" />
<glyph unicode="&#xef;" glyph-name="idieresis" horiz-adv-x="523" d="M130 0V1091H393V0H130ZM-42 1282T-80 1318T-119 1420Q-119 1485 -81 1522T28 1559Q99 1559 137 1522T175 1420Q175 1355 137 1319T28 1282Q-42 1282 -80 1318ZM425 1282T387 1318T349 1420Q349
1485 387 1522T496 1559Q566 1559 604 1522T643 1420Q643 1355 605 1319T496 1282Q425 1282 387 1318Z" />
<glyph unicode="&#xf0;" glyph-name="eth" horiz-adv-x="1172" d="M970 1152T1032 967T1095 602Q1095 286 963 133T587 -21Q346 -21 212 120T78 543Q78 731 138 856T307 1041T564 1102Q661 1102 736 1064Q690 1167 615 1271L193 1198L164 1346L504 1405Q400 1518
266 1616H580Q676 1544 758 1449L1038 1498L1066 1350L861 1314Q970 1152 1032 967ZM706 181T768 265T830 540Q830 739 769 822T586 905Q465 905 404 823T342 544Q342 410 370 330T452 216T587 181Q706 181 768 265Z" />
<glyph unicode="&#xf1;" glyph-name="ntilde" horiz-adv-x="1192" d="M130 1091H347L365 976H379Q441 1040 525 1074T706 1108Q875 1108 973 1009T1071 694V0H809V679Q809 788 763 834T629 881Q563 881 499 854T392 771V0H130V1091ZM713 1307T676 1319T586 1354Q541
1375 509 1385T445 1396Q393 1396 350 1377T264 1314V1483Q300 1520 345 1538T450 1556Q491 1556 528 1544T618 1509Q665 1488 696 1478T759 1468Q812 1468 854 1487T940 1550V1381Q904 1343 859 1325T754 1307Q713 1307 676 1319Z" />
<glyph unicode="&#xf2;" glyph-name="ograve" horiz-adv-x="1172" d="M347 -20T213 121T78 543Q78 826 210 967T586 1108Q829 1108 961 967T1094 544Q1094 356 1033 230T857 42T586 -20Q347 -20 213 121ZM707 182T768 264T830 542Q830 741 769 823T586 906Q465
906 404 824T342 546Q342 411 370 331T452 217T586 182Q707 182 768 264ZM466 1240L206 1616H486L706 1240H466Z" />
<glyph unicode="&#xf3;" glyph-name="oacute" horiz-adv-x="1172" d="M347 -20T213 121T78 543Q78 826 210 967T586 1108Q829 1108 961 967T1094 544Q1094 356 1033 230T857 42T586 -20Q347 -20 213 121ZM707 182T768 264T830 542Q830 741 769 823T586 906Q465
906 404 824T342 546Q342 411 370 331T452 217T586 182Q707 182 768 264ZM466 1240L686 1616H966L706 1240H466Z" />
<glyph unicode="&#xf4;" glyph-name="ocircumflex" horiz-adv-x="1172" d="M347 -20T213 121T78 543Q78 826 210 967T586 1108Q829 1108 961 967T1094 544Q1094 356 1033 230T857 42T586 -20Q347 -20 213 121ZM707 182T768 264T830 542Q830 741 769 823T586 906Q465
906 404 824T342 546Q342 411 370 331T452 217T586 182Q707 182 768 264ZM925 1240H732L586 1491L440 1240H247L477 1616H695L925 1240Z" />
<glyph unicode="&#xf5;" glyph-name="otilde" horiz-adv-x="1172" d="M347 -20T213 121T78 543Q78 826 210 967T586 1108Q829 1108 961 967T1094 544Q1094 356 1033 230T857 42T586 -20Q347 -20 213 121ZM707 182T768 264T830 542Q830 741 769 823T586 906Q465
906 404 824T342 546Q342 411 370 331T452 217T586 182Q707 182 768 264ZM697 1307T660 1319T570 1354Q525 1375 493 1385T429 1396Q377 1396 334 1377T248 1314V1483Q284 1520 329 1538T434 1556Q475 1556 512 1544T602 1509Q649 1488 680 1478T743 1468Q796 1468
838 1487T924 1550V1381Q888 1343 843 1325T738 1307Q697 1307 660 1319Z" />
<glyph unicode="&#xf6;" glyph-name="odieresis" horiz-adv-x="1172" d="M347 -20T213 121T78 543Q78 826 210 967T586 1108Q829 1108 961 967T1094 544Q1094 356 1033 230T857 42T586 -20Q347 -20 213 121ZM707 182T768 264T830 542Q830 741 769 823T586 906Q465
906 404 824T342 546Q342 411 370 331T452 217T586 182Q707 182 768 264ZM282 1282T244 1318T205 1420Q205 1485 243 1522T352 1559Q423 1559 461 1522T499 1420Q499 1355 461 1319T352 1282Q282 1282 244 1318ZM749 1282T711 1318T673 1420Q673 1485 711 1522T820
1559Q890 1559 928 1522T967 1420Q967 1355 929 1319T820 1282Q749 1282 711 1318Z" />
<glyph unicode="&#xf7;" glyph-name="divide" horiz-adv-x="1092" d="M473 998T430 1038T386 1148Q386 1217 429 1257T546 1298Q620 1298 663 1257T706 1148Q706 1080 663 1039T546 998Q473 998 430 1038ZM129 659V861H964V659H129ZM473 222T430 262T386 372Q386
441 429 481T546 522Q620 522 663 481T706 372Q706 304 663 263T546 222Q473 222 430 262Z" />
<glyph unicode="&#xf8;" glyph-name="oslash" horiz-adv-x="1172" d="M1094 815T1094 544Q1094 356 1033 230T857 42T586 -20Q424 -20 311 44L243 -49L132 34L203 132Q78 276 78 543Q78 826 210 967T586 1108Q748 1108 859 1046L927 1140L1038 1057L968 960Q1094
815 1094 544ZM462 909T399 827T336 546Q336 416 363 336L739 862Q684 909 586 909Q462 909 399 827ZM710 179T773 261T837 542Q837 675 808 757L431 227Q487 179 586 179Q710 179 773 261Z" />
<glyph unicode="&#xf9;" glyph-name="ugrave" horiz-adv-x="1183" d="M318 -19T220 80T121 394V1091H383V410Q383 301 428 255T558 208Q621 208 684 236T790 319V1091H1052V0H835L817 113H805Q741 48 660 15T488 -19Q318 -19 220 80ZM467 1240L207 1616H487L707
1240H467Z" />
<glyph unicode="&#xfa;" glyph-name="uacute" horiz-adv-x="1183" d="M318 -19T220 80T121 394V1091H383V410Q383 301 428 255T558 208Q621 208 684 236T790 319V1091H1052V0H835L817 113H805Q741 48 660 15T488 -19Q318 -19 220 80ZM467 1240L687 1616H967L707
1240H467Z" />
<glyph unicode="&#xfb;" glyph-name="ucircumflex" horiz-adv-x="1183" d="M318 -19T220 80T121 394V1091H383V410Q383 301 428 255T558 208Q621 208 684 236T790 319V1091H1052V0H835L817 113H805Q741 48 660 15T488 -19Q318 -19 220 80ZM926 1240H733L587 1491L441
1240H248L478 1616H696L926 1240Z" />
<glyph unicode="&#xfc;" glyph-name="udieresis" horiz-adv-x="1183" d="M318 -19T220 80T121 394V1091H383V410Q383 301 428 255T558 208Q621 208 684 236T790 319V1091H1052V0H835L817 113H805Q741 48 660 15T488 -19Q318 -19 220 80ZM283 1282T245 1318T206
1420Q206 1485 244 1522T353 1559Q424 1559 462 1522T500 1420Q500 1355 462 1319T353 1282Q283 1282 245 1318ZM750 1282T712 1318T674 1420Q674 1485 712 1522T821 1559Q891 1559 929 1522T968 1420Q968 1355 930 1319T821 1282Q750 1282 712 1318Z" />
<glyph unicode="&#xfd;" glyph-name="yacute" horiz-adv-x="1128" d="M864 1091H1123L568 -440H311L472 0H399L4 1091H280L569 227L864 1091ZM445 1240L665 1616H945L685 1240H445Z" />
<glyph unicode="&#xfe;" glyph-name="thorn" horiz-adv-x="1194" d="M130 1616H392V982H405Q455 1042 529 1075T696 1108Q815 1108 909 1052T1060 874T1116 566Q1116 278 969 129T538 -20Q480 -20 392 -10V-440H130V1616ZM697 183T774 268T852 545Q852 736 787
813T602 891Q541 891 485 868T392 798V197Q462 183 538 183Q697 183 774 268Z" />
<glyph unicode="&#xff;" glyph-name="ydieresis" horiz-adv-x="1128" d="M864 1091H1123L568 -440H311L472 0H399L4 1091H280L569 227L864 1091ZM261 1282T223 1318T184 1420Q184 1485 222 1522T331 1559Q402 1559 440 1522T478 1420Q478 1355 440 1319T331 1282Q261
1282 223 1318ZM728 1282T690 1318T652 1420Q652 1485 690 1522T799 1559Q869 1559 907 1522T946 1420Q946 1355 908 1319T799 1282Q728 1282 690 1318Z" />
<glyph unicode="&#x2013;" glyph-name="endash" horiz-adv-x="900" d="M0 472V659H900V472H0Z" />
<glyph unicode="&#x2014;" glyph-name="emdash" horiz-adv-x="1800" d="M0 472V659H1800V472H0Z" />
<glyph unicode="&#x2018;" glyph-name="quoteleft" horiz-adv-x="523" d="M353 1291T394 1248T435 1135Q435 1060 390 1016T270 972Q89 972 89 1185Q89 1298 125 1411T225 1616H375Q335 1522 313 1447T284 1298Q353 1291 394 1248Z" />
<glyph unicode="&#x2019;" glyph-name="quoteright" horiz-adv-x="523" d="M343 1631T388 1578T434 1418Q434 1306 398 1193T298 987H147Q188 1082 210 1157T239 1305Q170 1311 129 1355T87 1468Q87 1544 133 1587T257 1631Q343 1631 388 1578Z" />
<glyph unicode="&#x201a;" glyph-name="quotesinglbase" horiz-adv-x="523" d="M343 312T388 259T434 99Q434 -13 398 -126T298 -332H147Q188 -238 210 -163T239 -14Q169 -8 128 35T87 149Q87 225 133 268T257 312Q343 312 388 259Z" />
<glyph unicode="&#x201c;" glyph-name="quotedblleft" horiz-adv-x="965" d="M353 1291T394 1248T435 1135Q435 1060 390 1016T270 972Q89 972 89 1185Q89 1298 125 1411T225 1616H375Q335 1522 313 1447T284 1298Q353 1291 394 1248ZM796 1291T837 1248T878 1135Q878
1060 833 1016T713 972Q532 972 532 1185Q532 1298 568 1411T668 1616H818Q778 1522 756 1447T727 1298Q796 1291 837 1248Z" />
<glyph unicode="&#x201d;" glyph-name="quotedblright" horiz-adv-x="965" d="M343 1631T388 1578T434 1418Q434 1306 398 1193T298 987H147Q188 1082 210 1157T239 1305Q170 1311 129 1355T87 1468Q87 1544 133 1587T257 1631Q343 1631 388 1578ZM786 1631T831
1578T877 1418Q877 1306 841 1193T741 987H590Q631 1082 653 1157T682 1305Q613 1311 572 1355T530 1468Q530 1544 576 1587T700 1631Q786 1631 831 1578Z" />
<glyph unicode="&#x201e;" glyph-name="quotedblbase" horiz-adv-x="965" d="M343 312T388 259T434 99Q434 -13 398 -126T298 -332H147Q188 -238 210 -163T239 -14Q169 -8 128 35T87 149Q87 225 133 268T257 312Q343 312 388 259ZM786 312T831 259T877 99Q877
-13 841 -126T741 -332H590Q631 -238 653 -163T682 -14Q612 -8 571 35T530 149Q530 225 576 268T700 312Q786 312 831 259Z" />
<glyph unicode="&#x2022;" glyph-name="bullet" horiz-adv-x="742" d="M292 276T227 313T125 414T87 560Q87 641 124 706T227 807T371 844Q450 844 515 808T617 706T655 560Q655 479 618 415T515 313T371 276Q292 276 227 313Z" />
<glyph unicode="&#x2039;" glyph-name="guilsinglleft" horiz-adv-x="667" d="M345 135L94 565L345 996H613L362 565L613 135H345Z" />
<glyph unicode="&#x203a;" glyph-name="guilsinglright" horiz-adv-x="667" d="M54 135L305 565L54 996H322L573 565L322 135H54Z" />
</font>
</defs>
</svg>
