<?xml version="1.0" standalone="no"?>
<!DOCTYPE svg PUBLIC "-//W3C//DTD SVG 1.1//EN" "http://www.w3.org/Graphics/SVG/1.1/DTD/svg11.dtd">
<svg xmlns="http://www.w3.org/2000/svg">
<defs >
<font id="EncodeSans" horiz-adv-x="1063" ><font-face
    font-family="Encode Sans Thin"
    units-per-em="2000"
    panose-1="0 0 3 0 0 0 0 0 0 0"
    ascent="2060"
    descent="-440"
    alphabetic="0" />
<glyph unicode=" " glyph-name="space" horiz-adv-x="481" />
<glyph unicode="!" glyph-name="exclam" horiz-adv-x="446" d="M199 316L187 890V1480H259V890L247 316H199ZM196 -10T179 7T161 52Q161 80 178 98T223 116Q250 116 267 98T285 52Q285 24 268 7T223 -10Q196 -10 179 7Z" />
<glyph unicode="&quot;" glyph-name="quotedbl" horiz-adv-x="666" d="M173 956L153 1616H233L213 956H173ZM453 956L433 1616H513L493 956H453Z" />
<glyph unicode="#" glyph-name="numbersign" horiz-adv-x="1100" d="M1000 920H779L741 560H1000V494H734L683 0H617L668 494H380L329 0H263L314 494H100V560H321L359 920H100V986H366L417 1480H483L432 986H720L771 1480H837L786 986H1000V920ZM675 560L713 920H425L387
560H675Z" />
<glyph unicode="$" glyph-name="dollar" horiz-adv-x="1010" d="M925 210T825 109T538 -13V-240H474V-17Q462 -18 438 -18Q358 -18 270 -4T101 39V107Q275 48 442 48Q646 48 749 131T853 377Q853 469 819 530T711 632T514 706L452 722Q265 770 175 864T85 1112Q85
1275 184 1375T474 1494V1720H538V1498H561Q640 1498 720 1487T867 1453V1385Q717 1432 557 1432Q359 1432 258 1351T157 1116Q157 1026 188 965T289 863T477 790L539 774Q739 723 832 629T925 380Q925 210 825 109Z" />
<glyph unicode="%" glyph-name="percent" horiz-adv-x="1703" d="M278 578T197 687T116 1038Q116 1498 421 1498Q726 1498 726 1038Q726 797 645 688T421 578Q278 578 197 687ZM495 0L1137 1480H1208L566 0H495ZM535 641T597 732T659 1036Q659 1250 597 1342T421
1435Q307 1435 245 1344T183 1040Q183 827 245 734T421 641Q535 641 597 732ZM1139 -18T1058 91T977 442Q977 684 1057 793T1282 902Q1426 902 1506 793T1587 442Q1587 201 1506 92T1282 -18Q1139 -18 1058 91ZM1396 45T1458 136T1520 440Q1520 654 1458 746T1282
839Q1169 839 1107 748T1044 444Q1044 231 1106 138T1282 45Q1396 45 1458 136Z" />
<glyph unicode="&amp;" glyph-name="ampersand" horiz-adv-x="1434" d="M1393 -20L1130 195Q1067 90 950 36T669 -18Q503 -18 388 34T215 181T157 402Q157 539 223 644T417 814Q366 882 344 948T321 1094Q321 1290 440 1394T794 1498Q920 1498 1026 1469V1401Q917
1432 791 1432Q588 1432 491 1347T393 1095Q393 1014 417 949T503 813T684 645L1107 299Q1134 377 1134 481Q1134 548 1122 620T1088 760H1158Q1200 630 1200 481Q1200 354 1160 256L1434 32L1393 -20ZM973 48T1079 237L643 593Q528 687 462 760Q229 651 229 408Q229
241 339 145T671 48Q973 48 1079 237Z" />
<glyph unicode="&apos;" glyph-name="quotesingle" horiz-adv-x="386" d="M173 956L153 1616H233L213 956H173Z" />
<glyph unicode="(" glyph-name="parenleft" horiz-adv-x="626" d="M138 -5T138 588Q138 1181 479 1616H558Q378 1388 294 1131T210 588Q210 302 294 45T558 -440H479Q138 -5 138 588Z" />
<glyph unicode=")" glyph-name="parenright" horiz-adv-x="626" d="M248 -212T332 45T416 588Q416 874 332 1131T68 1616H147Q488 1181 488 588Q488 -5 147 -440H68Q248 -212 332 45Z" />
<glyph unicode="*" glyph-name="asterisk" horiz-adv-x="868" d="M460 1208L592 1052L699 907L647 869L540 1014L434 1188L328 1014L221 869L169 907L276 1052L408 1208L210 1256L30 1314L50 1374L228 1316L418 1238L402 1442V1616H466V1442L450 1238L640 1316L818
1374L838 1314L658 1256L460 1208Z" />
<glyph unicode="+" glyph-name="plus" horiz-adv-x="1062" d="M497 378V728H167V792H497V1142H565V792H895V728H565V378H497Z" />
<glyph unicode="," glyph-name="comma" horiz-adv-x="406" d="M231 116T248 96T265 32Q265 -132 197 -300H153Q180 -213 194 -145T211 -10H203Q176 -10 159 8T141 54Q141 81 157 98T201 116Q231 116 248 96Z" />
<glyph unicode="-" glyph-name="hyphen" horiz-adv-x="798" d="M167 528V592H631V528H167Z" />
<glyph unicode="." glyph-name="period" horiz-adv-x="406" d="M176 -10T159 7T141 52Q141 80 158 98T203 116Q230 116 247 98T265 52Q265 24 248 7T203 -10Q176 -10 159 7Z" />
<glyph unicode="/" glyph-name="slash" horiz-adv-x="517" d="M0 -240L448 1616H517L69 -240H0Z" />
<glyph unicode="0" glyph-name="zero" horiz-adv-x="1198" d="M372 -18T250 159T128 740Q128 1144 249 1321T599 1498Q828 1498 949 1321T1070 740Q1070 337 948 160T599 -18Q372 -18 250 159ZM726 48T813 112T949 328T998 736Q998 996 950 1150T814 1368T599
1432Q472 1432 385 1368T249 1152T200 744Q200 484 248 330T384 112T599 48Q726 48 813 112Z" />
<glyph unicode="1" glyph-name="one" horiz-adv-x="673" d="M431 1484H473V0H405V1386L23 1106V1183L431 1484Z" />
<glyph unicode="2" glyph-name="two" horiz-adv-x="936" d="M866 64V0H67V40L499 635Q615 792 663 903T711 1121Q711 1284 626 1358T368 1432Q198 1432 50 1373V1441Q113 1468 196 1483T368 1498Q567 1498 674 1407T781 1128Q781 1044 760 967T688 800T549 591L164
64H866Z" />
<glyph unicode="3" glyph-name="three" horiz-adv-x="969" d="M721 738T806 641T891 393Q891 196 765 89T398 -18Q310 -18 223 -3T57 41V109Q228 48 399 48Q606 48 713 136T821 393Q821 553 719 640T413 728H259V794H314Q536 794 654 882T772 1135Q772 1280 681
1356T416 1432Q249 1432 97 1376V1444Q166 1470 248 1484T416 1498Q620 1498 731 1403T842 1135Q842 1003 768 909T559 772Q721 738 806 641Z" />
<glyph unicode="4" glyph-name="four" horiz-adv-x="1128" d="M1082 448V384H862V0H794V384H54V424L662 1480H738L143 448H794L808 980H862V448H1082Z" />
<glyph unicode="5" glyph-name="five" horiz-adv-x="978" d="M545 815T671 766T857 627T917 405Q917 199 792 91T425 -18Q336 -18 248 -3T83 41V109Q254 48 427 48Q636 48 741 137T847 404Q847 520 795 594T630 709T328 761L143 772L192 1480H855V1416H255L215
835L345 827Q545 815 671 766Z" />
<glyph unicode="6" glyph-name="six" horiz-adv-x="1093" d="M717 828T817 781T973 639T1029 405Q1029 266 976 171T830 29T618 -18Q390 -18 265 148T139 692Q139 1108 284 1303T714 1498Q862 1498 965 1455V1387Q912 1410 846 1421T713 1432Q545 1432 434 1357T266
1122T209 704V701Q276 760 376 794T582 828Q717 828 817 781ZM773 48T866 136T959 402Q959 584 859 673T578 762Q478 762 378 728T210 623Q221 312 326 180T619 48Q773 48 866 136Z" />
<glyph unicode="7" glyph-name="seven" horiz-adv-x="892" d="M12 1480H833V1440L253 0H180L752 1416H12V1480Z" />
<glyph unicode="8" glyph-name="eight" horiz-adv-x="1198" d="M936 680T1012 592T1088 367Q1088 250 1032 163T867 29T610 -18Q370 -18 240 83T110 372Q110 513 188 618T404 777Q277 835 219 920T161 1127Q161 1241 213 1324T363 1453T594 1498Q730 1498 830
1453T983 1324T1036 1126Q1036 992 966 894T764 737Q936 680 1012 592ZM233 1034T270 968T394 855T631 774Q665 766 682 761Q833 824 900 909T968 1125Q968 1274 870 1353T593 1432Q419 1432 326 1352T233 1129Q233 1034 270 968ZM805 48T910 129T1016 362Q1016
457 978 520T855 628T620 707Q538 726 479 747Q336 701 259 604T181 374Q181 215 290 132T611 48Q805 48 910 129Z" />
<glyph unicode="9" glyph-name="nine" horiz-adv-x="1093" d="M703 1498T828 1332T954 788Q954 372 809 177T379 -18Q231 -18 128 25V93Q181 70 247 59T380 48Q548 48 659 123T827 358T884 776V779Q817 720 717 686T511 652Q376 652 276 699T120 841T64 1075Q64
1214 117 1309T263 1451T475 1498Q703 1498 828 1332ZM615 718T715 752T883 857Q872 1168 767 1300T474 1432Q320 1432 227 1344T134 1078Q134 896 234 807T515 718Q615 718 715 752Z" />
<glyph unicode=":" glyph-name="colon" horiz-adv-x="406" d="M176 -10T159 7T141 52Q141 80 158 98T203 116Q230 116 247 98T265 52Q265 24 248 7T203 -10Q176 -10 159 7ZM176 964T159 981T141 1026Q141 1054 158 1072T203 1090Q230 1090 247 1072T265 1026Q265
998 248 981T203 964Q176 964 159 981Z" />
<glyph unicode=";" glyph-name="semicolon" horiz-adv-x="406" d="M231 116T248 96T265 32Q265 -132 197 -300H153Q180 -213 194 -145T211 -10H203Q176 -10 159 8T141 54Q141 81 157 98T201 116Q231 116 248 96ZM176 964T159 981T141 1026Q141 1054 158 1072T203
1090Q230 1090 247 1072T265 1026Q265 998 248 981T203 964Q176 964 159 981Z" />
<glyph unicode="&lt;" glyph-name="less" horiz-adv-x="1062" d="M895 1114V1042L258 760L895 478V406L167 734V786L895 1114Z" />
<glyph unicode="=" glyph-name="equal" horiz-adv-x="1062" d="M167 910V974H895V910H167ZM167 546V610H895V546H167Z" />
<glyph unicode="&gt;" glyph-name="greater" horiz-adv-x="1062" d="M167 1114L895 786V734L167 406V478L804 760L167 1042V1114Z" />
<glyph unicode="?" glyph-name="question" horiz-adv-x="853" d="M348 730Q487 781 567 837T683 965T719 1135Q719 1280 628 1356T362 1432Q196 1432 44 1376V1444Q113 1470 195 1484T363 1498Q567 1498 678 1403T789 1135Q789 1027 755 949T639 806T418 685L408
300H360L348 730ZM357 -10T340 7T322 52Q322 80 339 98T384 116Q411 116 428 98T446 52Q446 25 429 8T384 -10Q357 -10 340 7Z" />
<glyph unicode="@" glyph-name="at" horiz-adv-x="1815" d="M1296 1498T1496 1267T1697 563Q1697 364 1658 235T1550 45T1395 -16Q1315 -16 1267 22T1203 126H1194Q1136 59 1049 22T862 -16Q716 -16 632 58T548 267Q548 402 632 476T897 573L1195 609V749Q1195
858 1161 919T1063 1005T900 1030Q836 1030 761 1018T612 979V1047Q672 1070 750 1083T900 1096Q1019 1096 1099 1063T1221 954T1263 749V226Q1263 132 1295 90T1399 48Q1462 48 1514 99T1597 263T1629 554Q1629 1009 1448 1220T913 1432Q557 1432 374 1215T190
524Q190 198 276 -5T531 -301T955 -394Q1047 -394 1134 -380T1318 -336V-404Q1237 -430 1144 -445T955 -460Q539 -459 329 -223T118 520Q118 1020 321 1259T913 1498Q1296 1498 1496 1267ZM958 50T1044 91T1195 220V543L896 507Q754 490 688 433T622 273Q622 163
683 107T865 50Q958 50 1044 91Z" />
<glyph unicode="A" glyph-name="A" horiz-adv-x="1286" d="M1174 0L975 528H309L110 0H37L600 1480H686L1249 0H1174ZM334 594H950L642 1408L334 594Z" />
<glyph unicode="B" glyph-name="B" horiz-adv-x="1216" d="M976 737T1054 640T1132 395Q1132 259 1071 170T875 36T525 -10Q436 -10 359 -6T190 10V1460Q279 1477 364 1485T557 1494Q835 1494 962 1400T1089 1110Q1089 979 1024 888T814 765Q976 737 1054 640ZM385
1428T258 1405V794H593Q819 794 919 871T1020 1110Q1020 1225 974 1294T826 1395T556 1428Q385 1428 258 1405ZM726 56T843 93T1011 203T1062 395Q1062 565 954 646T620 728H258V72Q370 56 527 56Q726 56 843 93Z" />
<glyph unicode="C" glyph-name="C" horiz-adv-x="1101" d="M439 -18T279 158T118 738Q118 1136 280 1317T745 1498Q907 1498 1065 1451V1383Q911 1432 740 1432Q560 1432 439 1365T254 1145T190 742Q190 484 255 331T438 113T729 48Q816 48 894 62T1065 108V40Q907
-18 729 -18Q439 -18 279 158Z" />
<glyph unicode="D" glyph-name="D" horiz-adv-x="1343" d="M428 -10T357 -6T190 10V1461Q363 1494 529 1494Q875 1494 1050 1307T1225 740Q1225 356 1046 173T508 -10Q428 -10 357 -6ZM727 56T869 127T1082 350T1153 740Q1153 1095 999 1261T524 1428Q406 1428
258 1406V72Q369 56 510 56Q727 56 869 127Z" />
<glyph unicode="E" glyph-name="E" horiz-adv-x="1115" d="M258 66H1044V0H190V1480H1034V1414H258V794H939V728H258V66Z" />
<glyph unicode="F" glyph-name="F" horiz-adv-x="1074" d="M1024 1414H258V794H929V728H258V0H190V1480H1024V1414Z" />
<glyph unicode="G" glyph-name="G" horiz-adv-x="1301" d="M1136 720V17Q1046 2 976 -4T827 -10Q473 -10 296 169T118 738Q117 1134 292 1316T777 1498Q937 1498 1107 1451V1383Q1015 1410 936 1421T776 1432Q498 1432 344 1271T190 743Q190 499 260 348T471 126T827
56Q959 56 1068 76V720H1136Z" />
<glyph unicode="H" glyph-name="H" horiz-adv-x="1398" d="M190 0V1480H258V794H1140V1480H1208V0H1140V728H258V0H190Z" />
<glyph unicode="I" glyph-name="I" horiz-adv-x="448" d="M190 0V1480H258V0H190Z" />
<glyph unicode="J" glyph-name="J" horiz-adv-x="448" d="M-1 -305Q100 -166 145 -29T190 286V1480H258V253Q250 77 203 -58T48 -340L-1 -305Z" />
<glyph unicode="K" glyph-name="K" horiz-adv-x="1183" d="M1108 0L513 728H258V0H190V1480H258V793H516L1068 1480H1151L571 762L1193 0H1108Z" />
<glyph unicode="L" glyph-name="L" horiz-adv-x="1027" d="M190 0V1480H258V66H1014V0H190Z" />
<glyph unicode="M" glyph-name="M" horiz-adv-x="1692" d="M1423 1480H1498V0H1432V1347L884 200H808L260 1343V0H194V1480H269L848 266L1423 1480Z" />
<glyph unicode="N" glyph-name="N" horiz-adv-x="1427" d="M1171 1480H1237V0H1162L256 1373V0H190V1480H265L1171 107V1480Z" />
<glyph unicode="O" glyph-name="O" horiz-adv-x="1368" d="M416 -18T267 164T118 740Q118 1132 268 1315T684 1498Q952 1498 1101 1316T1250 740Q1250 348 1100 165T684 -18Q416 -18 267 164ZM919 49T1048 209T1178 736Q1178 1107 1049 1269T684 1431Q449 1431
320 1271T190 744Q190 373 319 211T684 49Q919 49 1048 209Z" />
<glyph unicode="P" glyph-name="P" horiz-adv-x="1184" d="M190 1461Q368 1494 530 1494Q805 1494 945 1375T1085 1007Q1085 765 939 642T482 518Q367 518 258 529V0H190V1461ZM761 584T887 687T1013 1004Q1013 1224 895 1326T530 1428Q388 1428 258 1406V598Q360
584 485 584Q761 584 887 687Z" />
<glyph unicode="Q" glyph-name="Q" horiz-adv-x="1368" d="M1250 357T1103 166T669 -14Q878 -86 1223 -114L1213 -180Q784 -136 550 -38T217 244T118 740Q118 1132 268 1315T684 1498Q951 1498 1100 1317T1250 740Q1250 357 1103 166ZM190 373T319 211T684 49Q919
49 1048 209T1178 736Q1178 1107 1049 1269T684 1431Q449 1431 320 1271T190 744Q190 373 319 211Z" />
<glyph unicode="R" glyph-name="R" horiz-adv-x="1266" d="M1114 0L602 655Q555 651 491 651Q381 651 258 661V0H190V1461Q279 1477 361 1485T545 1494Q822 1494 954 1393T1087 1078Q1090 723 677 663L1197 0H1114ZM676 716T793 755T964 874T1019 1075Q1019 1202
970 1279T817 1392T541 1428Q457 1428 394 1422T258 1404V726Q329 720 375 718T489 716Q676 716 793 755Z" />
<glyph unicode="S" glyph-name="S" horiz-adv-x="1010" d="M358 -18T270 -4T101 39V107Q275 48 442 48Q646 48 749 131T853 377Q853 469 819 530T711 632T514 706L452 722Q265 770 175 864T85 1112Q85 1232 139 1318T299 1451T561 1498Q640 1498 720 1487T867
1453V1385Q717 1432 557 1432Q359 1432 258 1351T157 1116Q157 1026 188 965T289 863T477 790L539 774Q739 723 832 629T925 380Q925 188 799 85T438 -18Q358 -18 270 -4Z" />
<glyph unicode="T" glyph-name="T" horiz-adv-x="1112" d="M522 0V1414H14V1480H1098V1414H590V0H522Z" />
<glyph unicode="U" glyph-name="U" horiz-adv-x="1372" d="M513 -18T402 40T236 218T182 529V1480H250V519Q250 355 296 252T438 98T687 48Q840 48 936 98T1078 251T1124 519V1480H1190V529Q1190 339 1137 219T972 40T687 -18Q513 -18 402 40Z" />
<glyph unicode="V" glyph-name="V" horiz-adv-x="1246" d="M1158 1480H1229L670 0H576L17 1480H92L625 61L1158 1480Z" />
<glyph unicode="W" glyph-name="W" horiz-adv-x="2021" d="M1882 1480H1951L1519 0H1425L1011 1403L596 0H502L69 1480H142L550 67L964 1480H1058L1473 67L1882 1480Z" />
<glyph unicode="X" glyph-name="X" horiz-adv-x="1222" d="M652 748L1186 0H1100L610 688L119 0H35L569 747L45 1480H130L611 806L1093 1480H1176L652 748Z" />
<glyph unicode="Y" glyph-name="Y" horiz-adv-x="1112" d="M1123 1480L590 679V0H522V679L-19 1480H64L557 746L1043 1480H1123Z" />
<glyph unicode="Z" glyph-name="Z" horiz-adv-x="1103" d="M157 64H1040V0H63V40L934 1416H75V1480H1028V1440L157 64Z" />
<glyph unicode="[" glyph-name="bracketleft" horiz-adv-x="626" d="M210 -440V1616H666V1552H278V-376H666V-440H210Z" />
<glyph unicode="\" glyph-name="backslash" horiz-adv-x="521" d="M450 -240L0 1616H71L521 -240H450Z" />
<glyph unicode="]" glyph-name="bracketright" horiz-adv-x="626" d="M-40 -440V-376H348V1552H-40V1616H416V-440H-40Z" />
<glyph unicode="^" glyph-name="asciicircum" horiz-adv-x="1100" d="M986 740H907L550 1428L193 740H114L502 1480H596L986 740Z" />
<glyph unicode="_" glyph-name="underscore" horiz-adv-x="1072" d="M95 -64V0H977V-64H95Z" />
<glyph unicode="`" glyph-name="grave" horiz-adv-x="1000" d="M468 1264L246 1616H324L532 1264H468Z" />
<glyph unicode="a" glyph-name="a" horiz-adv-x="979" d="M578 1096T658 1063T780 953T823 746V0H763L757 128H749Q693 60 607 22T422 -16Q276 -16 192 58T108 267Q108 403 194 477T467 574L755 608V746Q755 856 721 918T623 1005T457 1030Q391 1030 316 1018T166
979V1047Q227 1070 305 1083T457 1096Q578 1096 658 1063ZM518 50T604 91T755 220V542L465 508Q316 491 249 434T182 273Q182 163 243 107T425 50Q518 50 604 91Z" />
<glyph unicode="b" glyph-name="b" horiz-adv-x="1071" d="M381 -18T308 -7T170 24V1616H238V965H244Q298 1024 377 1060T554 1096Q739 1096 851 970T963 560Q963 -18 454 -18Q381 -18 308 -7ZM674 48T782 169T891 552Q891 814 800 922T550 1030Q457 1030 375
990T238 869V78Q282 65 340 57T458 48Q674 48 782 169Z" />
<glyph unicode="c" glyph-name="c" horiz-adv-x="826" d="M326 -18T217 115T108 540Q108 832 227 964T583 1096Q697 1096 793 1067V999Q687 1030 585 1030Q446 1030 358 983T225 829T180 544Q180 363 221 254T342 97T545 48Q656 48 793 97V29Q665 -18 538 -18Q326
-18 217 115Z" />
<glyph unicode="d" glyph-name="d" horiz-adv-x="1071" d="M333 -18T221 110T108 518Q108 812 239 954T627 1096Q725 1096 833 1078V1616H901V0H841L835 119H827Q775 56 696 19T523 -18Q333 -18 221 110ZM617 48T698 90T833 217V1007Q791 1018 735 1024T624 1030Q400
1030 290 910T180 526Q180 265 270 157T526 48Q617 48 698 90Z" />
<glyph unicode="e" glyph-name="e" horiz-adv-x="984" d="M893 510H180Q185 264 284 156T576 48Q690 48 843 97V29Q703 -18 572 -18Q344 -18 226 115T108 540Q108 824 214 960T507 1096Q893 1096 893 540V510ZM354 1030T269 923T180 576H822Q818 817 738 923T507
1030Q354 1030 269 923Z" />
<glyph unicode="f" glyph-name="f" horiz-adv-x="667" d="M433 1570T368 1507T303 1296V1080H674V1016H303V0H235V1016H15V1080H235V1293Q235 1466 319 1551T573 1636Q645 1636 713 1624V1556Q638 1570 569 1570Q433 1570 368 1507Z" />
<glyph unicode="g" glyph-name="g" horiz-adv-x="1071" d="M396 -460T316 -447T173 -409V-341Q326 -394 467 -394Q593 -394 673 -357T793 -237T833 -12V113H827Q773 54 694 18T517 -18Q332 -18 220 108T108 518Q108 1096 617 1096Q689 1096 763 1085T901 1054V-7Q901
-247 794 -353T466 -460Q396 -460 316 -447ZM613 48T696 89T833 209V1003Q788 1015 730 1022T613 1030Q397 1030 289 909T180 526Q180 264 271 156T521 48Q613 48 696 89Z" />
<glyph unicode="h" glyph-name="h" horiz-adv-x="1087" d="M170 1616H238V953H244Q314 1024 405 1060T597 1096Q931 1096 931 739V0H863V740Q863 895 793 961T594 1028Q496 1028 400 985T238 852V0H170V1616Z" />
<glyph unicode="i" glyph-name="i" horiz-adv-x="408" d="M170 0V1080H238V0H170ZM177 1360T160 1377T142 1422Q142 1450 159 1468T204 1486Q231 1486 248 1468T266 1422Q266 1394 249 1377T204 1360Q177 1360 160 1377Z" />
<glyph unicode="j" glyph-name="j" horiz-adv-x="408" d="M-21 -425Q80 -286 125 -149T170 166V1080H238V173Q238 -19 189 -163T28 -460L-21 -425ZM177 1366T160 1383T142 1428Q142 1456 159 1474T204 1492Q231 1492 248 1474T266 1428Q266 1400 249 1383T204
1366Q177 1366 160 1383Z" />
<glyph unicode="k" glyph-name="k" horiz-adv-x="957" d="M887 0L450 520H238V0H170V1616H238V584H449L856 1080H940L509 552L972 0H887Z" />
<glyph unicode="l" glyph-name="l" horiz-adv-x="408" d="M170 0V1616H238V0H170Z" />
<glyph unicode="m" glyph-name="m" horiz-adv-x="1632" d="M1312 1096T1394 1012T1476 739V0H1408V738Q1408 1030 1166 1030Q1083 1030 997 988T851 852Q860 801 860 739V0H792V738Q792 894 730 962T555 1030Q469 1030 383 986T238 847V0H170V1080H230L236 950H244Q307
1022 389 1059T562 1096Q764 1096 829 931Q902 1018 991 1057T1170 1096Q1312 1096 1394 1012Z" />
<glyph unicode="n" glyph-name="n" horiz-adv-x="1087" d="M170 1080H230L236 951H244Q314 1021 405 1058T596 1096Q931 1096 931 738V0H863V738Q863 894 794 962T594 1030Q499 1030 402 988T238 853V0H170V1080Z" />
<glyph unicode="o" glyph-name="o" horiz-adv-x="1058" d="M330 -18T219 116T108 540Q108 826 219 961T529 1096Q728 1096 839 963T950 540Q950 253 839 118T529 -18Q330 -18 219 116ZM698 48T788 161T878 537Q878 802 788 916T529 1030Q360 1030 270 917T180
543Q180 277 270 163T529 48Q698 48 788 161Z" />
<glyph unicode="p" glyph-name="p" horiz-adv-x="1071" d="M170 1080H230L237 959H244Q296 1022 375 1059T548 1096Q737 1096 850 970T963 560Q963 266 833 124T444 -18Q351 -18 238 -1V-440H170V1080ZM671 48T781 168T891 552Q891 814 800 922T545 1030Q454 1030
373 988T238 861V71Q280 60 336 54T447 48Q671 48 781 168Z" />
<glyph unicode="q" glyph-name="q" horiz-adv-x="1071" d="M833 113H827Q773 54 694 18T517 -18Q332 -18 220 108T108 518Q108 1096 617 1096Q689 1096 763 1085T901 1054V-440H833V113ZM613 48T696 89T833 209V1003Q788 1015 730 1022T613 1030Q397 1030 289
909T180 526Q180 264 271 156T521 48Q613 48 696 89Z" />
<glyph unicode="r" glyph-name="r" horiz-adv-x="673" d="M170 1080H230L236 933H244Q304 1006 393 1047T576 1088Q622 1088 660 1081V1013Q625 1018 575 1018Q483 1018 390 971T238 836V0H170V1080Z" />
<glyph unicode="s" glyph-name="s" horiz-adv-x="856" d="M246 -18T120 23V91Q198 68 262 58T395 48Q552 48 628 106T705 274Q705 367 658 417T498 492L369 520Q228 553 166 622T104 803Q104 889 146 955T273 1058T485 1096Q606 1096 720 1066V998Q654 1016 601
1023T485 1030Q327 1030 251 969T175 806Q175 721 221 669T374 592L503 564Q651 530 713 462T776 280Q776 139 679 61T392 -18Q246 -18 120 23Z" />
<glyph unicode="t" glyph-name="t" horiz-adv-x="694" d="M608 48T688 67V-1Q614 -18 542 -18Q227 -18 227 310V1016H7V1080H227L235 1480H295V1080H666V1016H295V322Q295 176 357 112T546 48Q608 48 688 67Z" />
<glyph unicode="u" glyph-name="u" horiz-adv-x="1077" d="M331 -18T244 66T156 339V1080H224V338Q224 183 293 116T488 48Q583 48 678 91T839 225V1080H907V0H847L841 124H833Q764 54 674 18T486 -18Q331 -18 244 66Z" />
<glyph unicode="v" glyph-name="v" horiz-adv-x="995" d="M897 1080H970L544 0H451L25 1080H101L499 59L897 1080Z" />
<glyph unicode="w" glyph-name="w" horiz-adv-x="1624" d="M1483 1080H1554L1224 0H1130L813 1007L495 0H401L70 1080H143L449 66L766 1080H860L1178 66L1483 1080Z" />
<glyph unicode="x" glyph-name="x" horiz-adv-x="941" d="M513 546L915 0H829L470 490L114 0H29L429 544L36 1080H122L472 601L823 1080H906L513 546Z" />
<glyph unicode="y" glyph-name="y" horiz-adv-x="995" d="M897 1080H970L371 -440H299L473 0H451L25 1080H101L499 58L897 1080Z" />
<glyph unicode="z" glyph-name="z" horiz-adv-x="865" d="M154 64H808V0H61V40L703 1016H73V1080H796V1040L154 64Z" />
<glyph unicode="{" glyph-name="braceleft" horiz-adv-x="666" d="M318 755T288 700T193 622Q257 599 287 544T318 394V-141Q318 -273 383 -333T582 -394H706V-450Q656 -460 586 -460Q250 -460 250 -134V404Q250 501 205 545T66 590H51V654H66Q159 654 204 698T250
840V1310Q250 1636 586 1636Q656 1636 706 1626V1570H582Q448 1570 383 1510T318 1317V850Q318 755 288 700Z" />
<glyph unicode="|" glyph-name="bar" horiz-adv-x="448" d="M190 -440V1616H258V-440H190Z" />
<glyph unicode="}" glyph-name="braceright" horiz-adv-x="666" d="M615 654V590H600Q507 590 462 546T416 404V-134Q416 -460 80 -460Q10 -460 -40 -450V-394H84Q218 -394 283 -334T348 -141V394Q348 489 378 544T473 622Q409 645 379 700T348 850V1317Q348 1449
283 1509T84 1570H-40V1626Q10 1636 80 1636Q416 1636 416 1310V840Q416 743 461 699T600 654H615Z" />
<glyph unicode="~" glyph-name="asciitilde" horiz-adv-x="1062" d="M657 664T615 680T512 727Q458 755 426 767T361 780Q248 780 167 672V754Q200 797 250 820T359 844Q405 844 447 828T550 781Q604 753 636 741T701 728Q814 728 895 836V754Q862 711 812 688T703
664Q657 664 615 680Z" />
<glyph unicode="&#xa0;" glyph-name="uni00A0" horiz-adv-x="481" />
<glyph unicode="&#xa1;" glyph-name="exclamdown" horiz-adv-x="446" d="M250 1090T267 1073T285 1028Q285 1000 268 982T223 964Q196 964 179 982T161 1028Q161 1056 178 1073T223 1090Q250 1090 267 1073ZM199 764H247L259 190V-380H187V190L199 764Z" />
<glyph unicode="&#xa2;" glyph-name="cent" horiz-adv-x="831" d="M443 1030T355 983T224 830T180 544Q180 363 221 254T342 97T545 48Q656 48 793 97V29Q680 -12 570 -17V-240H506V-17Q309 -8 209 126T108 540Q108 807 207 940T506 1092V1320H570V1096H584Q691
1096 793 1067V999Q684 1030 581 1030Q443 1030 355 983Z" />
<glyph unicode="&#xa3;" glyph-name="sterling" horiz-adv-x="1222" d="M1142 64V0H80V64H314V718H80V782H314V1066Q314 1498 797 1498Q876 1498 956 1487T1104 1453V1385Q954 1432 794 1432Q588 1432 485 1346T382 1066V782H934V718H382V64H1142Z" />
<glyph unicode="&#xa4;" glyph-name="currency" horiz-adv-x="1100" d="M890 452L990 356L934 300L838 400L768 494Q727 454 672 433T550 411Q484 411 429 432T332 493L262 400L166 300L110 356L210 452L306 523Q273 565 256 620T239 740Q239 804 256 858T306
955L210 1028L108 1124L164 1180L260 1080L332 985Q373 1025 428 1046T550 1067Q616 1067 671 1046T767 985L840 1080L936 1180L992 1124L890 1028L794 955Q827 913 844 859T861 740Q861 610 794 523L890 452ZM624 473T680 504T768 596T799 740Q799 819 771 879T686
973T552 1007Q477 1007 421 975T333 883T301 740Q301 657 332 597T419 505T550 473Q624 473 680 504Z" />
<glyph unicode="&#xa5;" glyph-name="yen" horiz-adv-x="1164" d="M1153 1480L649 728H936V664H616V384H936V320H616V0H548V320H228V384H548V664H228V728H515L11 1480H94L583 746L1073 1480H1153Z" />
<glyph unicode="&#xa6;" glyph-name="brokenbar" horiz-adv-x="448" d="M190 836V1616H258V836H190ZM190 -440V340H258V-440H190Z" />
<glyph unicode="&#xa7;" glyph-name="section" horiz-adv-x="960" d="M806 402T806 280Q806 139 709 61T422 -18Q276 -18 150 23V91Q228 68 292 58T425 48Q582 48 658 106T735 274Q735 367 688 417T528 492L399 520Q258 552 196 621T134 803Q134 864 158 917T229
1009Q154 1078 154 1203Q154 1289 196 1355T323 1458T535 1496Q656 1496 770 1466V1398Q704 1416 651 1423T535 1430Q377 1430 301 1369T225 1206Q225 1121 271 1069T424 992L553 964Q701 930 763 862T826 680Q826 552 734 470Q806 402 806 280ZM533 562Q627 541
681 509Q759 566 759 674Q759 767 710 818T548 894L419 922Q343 939 283 971Q242 941 222 899T201 806Q201 721 248 668T404 590L533 562Z" />
<glyph unicode="&#xa8;" glyph-name="dieresis" horiz-adv-x="1000" d="M273 1360T256 1377T238 1422Q238 1450 255 1468T300 1486Q327 1486 344 1468T362 1422Q362 1394 345 1377T300 1360Q273 1360 256 1377ZM673 1360T656 1377T638 1422Q638 1450 655 1468T700
1486Q727 1486 744 1468T762 1422Q762 1394 745 1377T700 1360Q673 1360 656 1377Z" />
<glyph unicode="&#xa9;" glyph-name="copyright" horiz-adv-x="1724" d="M641 -22T473 73T211 340T118 740Q118 967 211 1139T472 1407T862 1502Q1083 1502 1251 1407T1513 1140T1606 740Q1606 513 1513 341T1252 73T862 -22Q641 -22 473 73ZM1063 46T1216 132T1454
376T1538 740Q1538 947 1454 1104T1217 1347T862 1434Q661 1434 508 1348T270 1104T186 740Q186 533 270 376T507 133T862 46Q1063 46 1216 132ZM780 324T694 370T560 509T512 734Q512 931 618 1037T922 1144Q1024 1144 1114 1116V1050Q1018 1078 924 1078Q758
1078 671 994T584 738Q584 564 667 477T902 390Q1006 390 1114 432V366Q1019 324 896 324Q780 324 694 370Z" />
<glyph unicode="&#xaa;" glyph-name="ordfeminine" horiz-adv-x="828" d="M489 1492T557 1465T662 1374T698 1203V610H642L636 712H630Q582 658 509 627T352 596Q229 596 158 657T86 827Q86 936 159 997T391 1076L634 1102V1205Q634 1291 605 1340T521 1410T380
1430Q263 1430 137 1387V1451Q190 1471 255 1481T383 1492Q489 1492 557 1465ZM436 658T507 690T634 790V1043L392 1017Q267 1004 211 959T154 833Q154 748 205 703T359 658Q436 658 507 690Z" />
<glyph unicode="&#xab;" glyph-name="guillemotleft" horiz-adv-x="881" d="M384 140L128 560L384 980H458L202 560L458 140H384ZM719 140L463 560L719 980H793L537 560L793 140H719Z" />
<glyph unicode="&#xac;" glyph-name="logicalnot" horiz-adv-x="1334" d="M1110 192V728H167V792H1178V192H1110Z" />
<glyph unicode="&#xad;" glyph-name="uni00AD" horiz-adv-x="798" d="M167 528V592H631V528H167Z" />
<glyph unicode="&#xae;" glyph-name="registered" horiz-adv-x="1540" d="M949 1498T1087 1420T1303 1202T1380 882Q1380 702 1303 563T1088 346T770 268Q591 268 453 345T237 562T160 882Q160 1062 237 1202T452 1420T770 1498Q949 1498 1087 1420ZM932 334T1055
401T1245 593T1312 882Q1312 1046 1245 1171T1055 1364T770 1432Q608 1432 485 1364T295 1171T228 882Q228 718 295 594T485 402T770 334Q932 334 1055 401ZM1000 942T966 899T863 838L1024 600H948L793 827Q781 826 756 826H628V600H562V1192H756Q875 1192 937
1144T1000 1008Q1000 942 966 899ZM768 888Q853 888 893 917T934 1008Q934 1070 893 1100T768 1130H628V888H768Z" />
<glyph unicode="&#xaf;" glyph-name="overscore" horiz-adv-x="1000" d="M217 1394V1453H783V1394H217Z" />
<glyph unicode="&#xb0;" glyph-name="degree" horiz-adv-x="984" d="M396 832T321 875T203 993T160 1164Q160 1259 202 1334T320 1453T492 1496Q588 1496 663 1453T781 1335T824 1164Q824 1069 782 994T664 875T492 832Q396 832 321 875ZM569 896T629 929T723
1022T757 1164Q757 1245 724 1305T630 1399T492 1432Q415 1432 355 1399T261 1306T227 1164Q227 1083 260 1023T354 929T492 896Q569 896 629 929Z" />
<glyph unicode="&#xb1;" glyph-name="plusminus" horiz-adv-x="1062" d="M497 316V666H167V730H497V1080H565V730H895V666H565V316H497ZM167 0V64H895V0H167Z" />
<glyph unicode="&#xb2;" glyph-name="uni00B2" horiz-adv-x="749" d="M657 -74V-136H94V-97L394 299Q475 403 509 474T543 614Q543 718 484 766T307 814Q184 814 82 774V838Q173 876 310 876Q454 876 531 814T609 620Q609 539 572 460T444 263L185 -74H657Z" />
<glyph unicode="&#xb3;" glyph-name="uni00B3" horiz-adv-x="749" d="M550 364T608 298T667 131Q667 -3 577 -75T314 -148Q183 -148 72 -109V-45Q188 -87 314 -87Q456 -87 529 -31T603 134Q603 236 533 291T323 347H210V409H258Q409 409 489 465T569 625Q569 718
506 766T323 815Q202 815 99 776V840Q145 858 204 867T326 876Q473 876 553 812T633 628Q633 540 582 478T439 386Q550 364 608 298Z" />
<glyph unicode="&#xb4;" glyph-name="acute" horiz-adv-x="1000" d="M468 1264L676 1616H754L532 1264H468Z" />
<glyph unicode="&#xb5;" glyph-name="uni00B5" horiz-adv-x="1077" d="M907 1080V0H847L841 124H833Q764 54 674 18T486 -18Q393 -18 328 12T224 109V-440H156V1080H224V338Q224 183 293 116T488 48Q583 48 678 91T839 225V1080H907Z" />
<glyph unicode="&#xb6;" glyph-name="paragraph" horiz-adv-x="1184" d="M728 528Q651 518 568 518Q327 518 213 641T99 1007Q99 1255 208 1374T530 1494Q658 1494 796 1480V0H728V528ZM926 0V1480H994V0H926Z" />
<glyph unicode="&#xb7;" glyph-name="middot" horiz-adv-x="406" d="M176 496T159 513T141 558Q141 586 158 604T203 622Q230 622 247 604T265 558Q265 530 248 513T203 496Q176 496 159 513Z" />
<glyph unicode="&#xb8;" glyph-name="cedilla" horiz-adv-x="1000" d="M603 -119T642 -156T681 -257Q681 -324 635 -362T505 -400Q462 -400 418 -390T342 -363V-307Q420 -348 508 -348Q626 -348 626 -257Q626 -164 506 -164H474V20H530V-114Q603 -119 642 -156Z" />
<glyph unicode="&#xb9;" glyph-name="uni00B9" horiz-adv-x="749" d="M449 -74H677V-136H145V-74H385V779L140 597V669L408 868H449V-74Z" />
<glyph unicode="&#xba;" glyph-name="ordmasculine" horiz-adv-x="904" d="M284 596T188 706T92 1046Q92 1275 188 1383T452 1492Q620 1492 716 1384T812 1046Q812 817 716 707T452 596Q284 596 188 706ZM593 659T668 749T744 1046Q744 1252 669 1340T452 1429Q311
1429 236 1341T160 1046Q160 840 235 750T452 659Q593 659 668 749Z" />
<glyph unicode="&#xbb;" glyph-name="guillemotright" horiz-adv-x="881" d="M88 140L344 560L88 980H162L418 560L162 140H88ZM423 140L679 560L423 980H497L753 560L497 140H423Z" />
<glyph unicode="&#xbc;" glyph-name="onequarter" horiz-adv-x="1721" d="M449 678H677V616H145V678H385V1531L140 1349V1421L408 1620H449V678ZM434 -136L1221 1616H1287L500 -136H434ZM1694 176V116H1548V-136H1486V116H1005V156L1393 864H1461L1084 176H1486L1498
526H1548V176H1694Z" />
<glyph unicode="&#xbd;" glyph-name="onehalf" horiz-adv-x="1721" d="M449 678H677V616H145V678H385V1531L140 1349V1421L408 1620H449V678ZM434 -136L1221 1616H1287L500 -136H434ZM1629 -74V-136H1066V-97L1366 299Q1447 403 1481 474T1515 614Q1515 718 1456
766T1279 814Q1156 814 1054 774V838Q1145 876 1282 876Q1426 876 1503 814T1581 620Q1581 539 1544 460T1416 263L1157 -74H1629Z" />
<glyph unicode="&#xbe;" glyph-name="threequarters" horiz-adv-x="1721" d="M550 1116T608 1050T667 883Q667 749 577 677T314 604Q183 604 72 643V707Q188 665 314 665Q456 665 529 721T603 886Q603 988 533 1043T323 1099H210V1161H258Q409 1161 489 1217T569
1377Q569 1470 506 1518T323 1567Q202 1567 99 1528V1592Q145 1610 204 1619T326 1628Q473 1628 553 1564T633 1380Q633 1292 582 1230T439 1138Q550 1116 608 1050ZM434 -136L1221 1616H1287L500 -136H434ZM1694 176V116H1548V-136H1486V116H1005V156L1393 864H1461L1084
176H1486L1498 526H1548V176H1694Z" />
<glyph unicode="&#xbf;" glyph-name="questiondown" horiz-adv-x="853" d="M496 1090T513 1073T531 1028Q531 1000 514 982T469 964Q442 964 425 982T407 1028Q407 1055 424 1072T469 1090Q496 1090 513 1073ZM505 350Q366 300 286 243T170 117T134 -47Q134 -185
226 -259T491 -334Q657 -334 809 -278V-346Q740 -372 658 -386T490 -400Q355 -400 259 -358T114 -237T64 -47Q64 57 99 134T214 274T435 395L445 780H493L505 350Z" />
<glyph unicode="&#xc0;" glyph-name="Agrave" horiz-adv-x="1286" d="M1174 0L975 528H309L110 0H37L600 1480H686L1249 0H1174ZM334 594H950L642 1408L334 594ZM612 1616L422 1888H501L676 1616H612Z" />
<glyph unicode="&#xc1;" glyph-name="Aacute" horiz-adv-x="1286" d="M1174 0L975 528H309L110 0H37L600 1480H686L1249 0H1174ZM334 594H950L642 1408L334 594ZM612 1616L787 1888H866L676 1616H612Z" />
<glyph unicode="&#xc2;" glyph-name="Acircumflex" horiz-adv-x="1286" d="M1174 0L975 528H309L110 0H37L600 1480H686L1249 0H1174ZM334 594H950L642 1408L334 594ZM922 1616H841L644 1844L447 1616H366L606 1888H682L922 1616Z" />
<glyph unicode="&#xc3;" glyph-name="Atilde" horiz-adv-x="1286" d="M1174 0L975 528H309L110 0H37L600 1480H686L1249 0H1174ZM334 594H950L642 1408L334 594ZM749 1697T714 1707T630 1738Q587 1756 558 1764T500 1773Q451 1773 415 1756T345 1702V1769Q400
1830 500 1830Q539 1830 574 1820T658 1789Q701 1771 730 1763T788 1754Q837 1754 873 1771T943 1825V1758Q888 1697 788 1697Q749 1697 714 1707Z" />
<glyph unicode="&#xc4;" glyph-name="Adieresis" horiz-adv-x="1286" d="M1174 0L975 528H309L110 0H37L600 1480H686L1249 0H1174ZM334 594H950L642 1408L334 594ZM397 1690T380 1707T362 1752Q362 1780 379 1798T424 1816Q451 1816 468 1798T486 1752Q486 1724
469 1707T424 1690Q397 1690 380 1707ZM837 1690T820 1707T802 1752Q802 1780 819 1798T864 1816Q891 1816 908 1798T926 1752Q926 1724 909 1707T864 1690Q837 1690 820 1707Z" />
<glyph unicode="&#xc5;" glyph-name="Aring" horiz-adv-x="1286" d="M975 528H309L110 0H37L585 1441Q530 1459 497 1506T463 1615Q463 1667 487 1709T553 1775T647 1799Q699 1799 741 1775T807 1709T831 1615Q831 1550 796 1503T702 1438L1249 0H1174L975 528ZM517
1554T553 1519T647 1483Q705 1483 741 1518T777 1615Q777 1676 741 1711T647 1747Q589 1747 553 1712T517 1615Q517 1554 553 1519ZM334 594H950L642 1408L334 594Z" />
<glyph unicode="&#xc6;" glyph-name="AE" horiz-adv-x="1755" d="M983 66H1684V0H918L884 528H314L110 0H37L611 1480H1674V1414H895L935 794H1579V728H940L983 66ZM339 594H880L828 1414H655L339 594Z" />
<glyph unicode="&#xc7;" glyph-name="Ccedilla" horiz-adv-x="1101" d="M560 1432T439 1365T254 1145T190 742Q190 484 255 331T438 113T729 48Q816 48 894 62T1065 108V40Q907 -18 729 -18H717V-112Q797 -115 844 -152T892 -256Q892 -326 841 -363T701 -400Q654
-400 605 -390T514 -361V-305Q568 -328 612 -338T701 -348Q766 -348 801 -326T836 -256Q836 -164 699 -164H661V-16Q402 3 260 180T118 738Q118 1136 280 1317T745 1498Q907 1498 1065 1451V1383Q911 1432 740 1432Q560 1432 439 1365Z" />
<glyph unicode="&#xc8;" glyph-name="Egrave" horiz-adv-x="1115" d="M258 66H1044V0H190V1480H1034V1414H258V794H939V728H258V66ZM602 1616L412 1888H491L666 1616H602Z" />
<glyph unicode="&#xc9;" glyph-name="Eacute" horiz-adv-x="1115" d="M258 66H1044V0H190V1480H1034V1414H258V794H939V728H258V66ZM602 1616L777 1888H856L666 1616H602Z" />
<glyph unicode="&#xca;" glyph-name="Ecircumflex" horiz-adv-x="1115" d="M258 66H1044V0H190V1480H1034V1414H258V794H939V728H258V66ZM912 1616H831L634 1844L437 1616H356L596 1888H672L912 1616Z" />
<glyph unicode="&#xcb;" glyph-name="Edieresis" horiz-adv-x="1115" d="M258 66H1044V0H190V1480H1034V1414H258V794H939V728H258V66ZM387 1690T370 1707T352 1752Q352 1780 369 1798T414 1816Q441 1816 458 1798T476 1752Q476 1724 459 1707T414 1690Q387 1690
370 1707ZM827 1690T810 1707T792 1752Q792 1780 809 1798T854 1816Q881 1816 898 1798T916 1752Q916 1724 899 1707T854 1690Q827 1690 810 1707Z" />
<glyph unicode="&#xcc;" glyph-name="Igrave" horiz-adv-x="448" d="M190 0V1480H258V0H190ZM192 1616L2 1888H81L256 1616H192Z" />
<glyph unicode="&#xcd;" glyph-name="Iacute" horiz-adv-x="448" d="M190 0V1480H258V0H190ZM192 1616L367 1888H446L256 1616H192Z" />
<glyph unicode="&#xce;" glyph-name="Icircumflex" horiz-adv-x="448" d="M190 0V1480H258V0H190ZM502 1616H421L224 1844L27 1616H-54L186 1888H262L502 1616Z" />
<glyph unicode="&#xcf;" glyph-name="Idieresis" horiz-adv-x="448" d="M190 0V1480H258V0H190ZM-23 1690T-40 1707T-58 1752Q-58 1780 -41 1798T4 1816Q31 1816 48 1798T66 1752Q66 1724 49 1707T4 1690Q-23 1690 -40 1707ZM417 1690T400 1707T382 1752Q382 1780
399 1798T444 1816Q471 1816 488 1798T506 1752Q506 1724 489 1707T444 1690Q417 1690 400 1707Z" />
<glyph unicode="&#xd0;" glyph-name="Eth" horiz-adv-x="1343" d="M875 1494T1050 1307T1225 740Q1225 356 1046 173T508 -10Q428 -10 357 -6T190 10V732H2V792H190V1461Q363 1494 529 1494Q875 1494 1050 1307ZM727 56T869 127T1082 350T1153 740Q1153 1095 999
1261T524 1428Q406 1428 258 1406V792H622V732H258V72Q369 56 510 56Q727 56 869 127Z" />
<glyph unicode="&#xd1;" glyph-name="Ntilde" horiz-adv-x="1427" d="M1171 1480H1237V0H1162L256 1373V0H190V1480H265L1171 107V1480ZM819 1697T784 1707T700 1738Q657 1756 628 1764T570 1773Q521 1773 485 1756T415 1702V1769Q470 1830 570 1830Q609 1830
644 1820T728 1789Q771 1771 800 1763T858 1754Q907 1754 943 1771T1013 1825V1758Q958 1697 858 1697Q819 1697 784 1707Z" />
<glyph unicode="&#xd2;" glyph-name="Ograve" horiz-adv-x="1368" d="M416 -18T267 164T118 740Q118 1132 268 1315T684 1498Q952 1498 1101 1316T1250 740Q1250 348 1100 165T684 -18Q416 -18 267 164ZM919 49T1048 209T1178 736Q1178 1107 1049 1269T684 1431Q449
1431 320 1271T190 744Q190 373 319 211T684 49Q919 49 1048 209ZM652 1616L462 1888H541L716 1616H652Z" />
<glyph unicode="&#xd3;" glyph-name="Oacute" horiz-adv-x="1368" d="M416 -18T267 164T118 740Q118 1132 268 1315T684 1498Q952 1498 1101 1316T1250 740Q1250 348 1100 165T684 -18Q416 -18 267 164ZM919 49T1048 209T1178 736Q1178 1107 1049 1269T684 1431Q449
1431 320 1271T190 744Q190 373 319 211T684 49Q919 49 1048 209ZM652 1616L827 1888H906L716 1616H652Z" />
<glyph unicode="&#xd4;" glyph-name="Ocircumflex" horiz-adv-x="1368" d="M416 -18T267 164T118 740Q118 1132 268 1315T684 1498Q952 1498 1101 1316T1250 740Q1250 348 1100 165T684 -18Q416 -18 267 164ZM919 49T1048 209T1178 736Q1178 1107 1049 1269T684
1431Q449 1431 320 1271T190 744Q190 373 319 211T684 49Q919 49 1048 209ZM962 1616H881L684 1844L487 1616H406L646 1888H722L962 1616Z" />
<glyph unicode="&#xd5;" glyph-name="Otilde" horiz-adv-x="1368" d="M416 -18T267 164T118 740Q118 1132 268 1315T684 1498Q952 1498 1101 1316T1250 740Q1250 348 1100 165T684 -18Q416 -18 267 164ZM919 49T1048 209T1178 736Q1178 1107 1049 1269T684 1431Q449
1431 320 1271T190 744Q190 373 319 211T684 49Q919 49 1048 209ZM789 1697T754 1707T670 1738Q627 1756 598 1764T540 1773Q491 1773 455 1756T385 1702V1769Q440 1830 540 1830Q579 1830 614 1820T698 1789Q741 1771 770 1763T828 1754Q877 1754 913 1771T983
1825V1758Q928 1697 828 1697Q789 1697 754 1707Z" />
<glyph unicode="&#xd6;" glyph-name="Odieresis" horiz-adv-x="1368" d="M416 -18T267 164T118 740Q118 1132 268 1315T684 1498Q952 1498 1101 1316T1250 740Q1250 348 1100 165T684 -18Q416 -18 267 164ZM919 49T1048 209T1178 736Q1178 1107 1049 1269T684
1431Q449 1431 320 1271T190 744Q190 373 319 211T684 49Q919 49 1048 209ZM437 1690T420 1707T402 1752Q402 1780 419 1798T464 1816Q491 1816 508 1798T526 1752Q526 1724 509 1707T464 1690Q437 1690 420 1707ZM877 1690T860 1707T842 1752Q842 1780 859 1798T904
1816Q931 1816 948 1798T966 1752Q966 1724 949 1707T904 1690Q877 1690 860 1707Z" />
<glyph unicode="&#xd7;" glyph-name="multiply" horiz-adv-x="976" d="M180 408L136 452L444 760L136 1068L180 1112L488 804L796 1112L840 1068L532 760L840 452L796 408L488 716L180 408Z" />
<glyph unicode="&#xd8;" glyph-name="Oslash" horiz-adv-x="1368" d="M1250 1099T1250 740Q1250 348 1100 165T684 -18Q430 -18 288 140L176 -16L125 20L248 191Q118 381 118 740Q118 1132 268 1315T684 1498Q938 1498 1080 1340L1192 1496L1243 1460L1120 1289Q1250
1099 1250 740ZM190 424T292 251L1038 1283Q915 1431 684 1431Q449 1431 320 1271T190 744Q190 424 292 251ZM919 49T1048 209T1178 736Q1178 1056 1076 1229L330 197Q453 49 684 49Q919 49 1048 209Z" />
<glyph unicode="&#xd9;" glyph-name="Ugrave" horiz-adv-x="1372" d="M513 -18T402 40T236 218T182 529V1480H250V519Q250 355 296 252T438 98T687 48Q840 48 936 98T1078 251T1124 519V1480H1190V529Q1190 339 1137 219T972 40T687 -18Q513 -18 402 40ZM655 1616L465
1888H544L719 1616H655Z" />
<glyph unicode="&#xda;" glyph-name="Uacute" horiz-adv-x="1372" d="M513 -18T402 40T236 218T182 529V1480H250V519Q250 355 296 252T438 98T687 48Q840 48 936 98T1078 251T1124 519V1480H1190V529Q1190 339 1137 219T972 40T687 -18Q513 -18 402 40ZM655 1616L830
1888H909L719 1616H655Z" />
<glyph unicode="&#xdb;" glyph-name="Ucircumflex" horiz-adv-x="1372" d="M513 -18T402 40T236 218T182 529V1480H250V519Q250 355 296 252T438 98T687 48Q840 48 936 98T1078 251T1124 519V1480H1190V529Q1190 339 1137 219T972 40T687 -18Q513 -18 402 40ZM965
1616H884L687 1844L490 1616H409L649 1888H725L965 1616Z" />
<glyph unicode="&#xdc;" glyph-name="Udieresis" horiz-adv-x="1372" d="M513 -18T402 40T236 218T182 529V1480H250V519Q250 355 296 252T438 98T687 48Q840 48 936 98T1078 251T1124 519V1480H1190V529Q1190 339 1137 219T972 40T687 -18Q513 -18 402 40ZM440
1690T423 1707T405 1752Q405 1780 422 1798T467 1816Q494 1816 511 1798T529 1752Q529 1724 512 1707T467 1690Q440 1690 423 1707ZM880 1690T863 1707T845 1752Q845 1780 862 1798T907 1816Q934 1816 951 1798T969 1752Q969 1724 952 1707T907 1690Q880 1690 863
1707Z" />
<glyph unicode="&#xdd;" glyph-name="Yacute" horiz-adv-x="1112" d="M1123 1480L590 679V0H522V679L-19 1480H64L557 746L1043 1480H1123ZM524 1616L699 1888H778L588 1616H524Z" />
<glyph unicode="&#xde;" glyph-name="Thorn" horiz-adv-x="1194" d="M190 1481H258V1226Q386 1248 530 1248Q805 1248 945 1129T1085 761Q1085 519 939 396T482 272Q367 272 258 283V0H190V1481ZM761 338T887 441T1013 758Q1013 978 895 1080T530 1182Q388 1182
258 1160V352Q360 338 485 338Q761 338 887 441Z" />
<glyph unicode="&#xdf;" glyph-name="germandbls" horiz-adv-x="1288" d="M1084 530T1146 462T1208 280Q1208 139 1111 61T826 -18Q675 -18 552 22V90Q629 67 693 58T827 48Q984 48 1060 106T1137 274Q1137 367 1090 417T930 492L801 520Q660 552 598 621T536
801Q536 887 578 953T705 1056T917 1094Q962 1094 1010 1088Q1021 1151 1021 1209Q1021 1401 928 1485T674 1570Q492 1570 398 1470T303 1146V0H235V1014H15V1080H235V1152Q235 1396 349 1516T674 1636Q861 1636 973 1531T1086 1209Q1086 1163 1079 1108T1062 1015Q1027
1022 995 1026T917 1030Q759 1030 683 969T607 806Q607 721 653 669T806 592L935 564Q1084 530 1146 462Z" />
<glyph unicode="&#xe0;" glyph-name="agrave" horiz-adv-x="979" d="M578 1096T658 1063T780 953T823 746V0H763L757 128H749Q693 60 607 22T422 -16Q276 -16 192 58T108 267Q108 403 194 477T467 574L755 608V746Q755 856 721 918T623 1005T457 1030Q391 1030
316 1018T166 979V1047Q227 1070 305 1083T457 1096Q578 1096 658 1063ZM518 50T604 91T755 220V542L465 508Q316 491 249 434T182 273Q182 163 243 107T425 50Q518 50 604 91ZM453 1264L231 1616H309L517 1264H453Z" />
<glyph unicode="&#xe1;" glyph-name="aacute" horiz-adv-x="979" d="M578 1096T658 1063T780 953T823 746V0H763L757 128H749Q693 60 607 22T422 -16Q276 -16 192 58T108 267Q108 403 194 477T467 574L755 608V746Q755 856 721 918T623 1005T457 1030Q391 1030
316 1018T166 979V1047Q227 1070 305 1083T457 1096Q578 1096 658 1063ZM518 50T604 91T755 220V542L465 508Q316 491 249 434T182 273Q182 163 243 107T425 50Q518 50 604 91ZM453 1264L661 1616H739L517 1264H453Z" />
<glyph unicode="&#xe2;" glyph-name="acircumflex" horiz-adv-x="979" d="M578 1096T658 1063T780 953T823 746V0H763L757 128H749Q693 60 607 22T422 -16Q276 -16 192 58T108 267Q108 403 194 477T467 574L755 608V746Q755 856 721 918T623 1005T457 1030Q391
1030 316 1018T166 979V1047Q227 1070 305 1083T457 1096Q578 1096 658 1063ZM518 50T604 91T755 220V542L465 508Q316 491 249 434T182 273Q182 163 243 107T425 50Q518 50 604 91ZM741 1264H670L485 1570L300 1264H229L447 1616H523L741 1264Z" />
<glyph unicode="&#xe3;" glyph-name="atilde" horiz-adv-x="979" d="M578 1096T658 1063T780 953T823 746V0H763L757 128H749Q693 60 607 22T422 -16Q276 -16 192 58T108 267Q108 403 194 477T467 574L755 608V746Q755 856 721 918T623 1005T457 1030Q391 1030
316 1018T166 979V1047Q227 1070 305 1083T457 1096Q578 1096 658 1063ZM518 50T604 91T755 220V542L465 508Q316 491 249 434T182 273Q182 163 243 107T425 50Q518 50 604 91ZM583 1380T550 1390T470 1421Q430 1439 404 1447T351 1456Q306 1456 271 1439T202 1385V1452Q257
1513 351 1513Q387 1513 420 1503T500 1472Q540 1454 566 1446T619 1437Q664 1437 699 1454T768 1508V1441Q713 1380 619 1380Q583 1380 550 1390Z" />
<glyph unicode="&#xe4;" glyph-name="adieresis" horiz-adv-x="979" d="M578 1096T658 1063T780 953T823 746V0H763L757 128H749Q693 60 607 22T422 -16Q276 -16 192 58T108 267Q108 403 194 477T467 574L755 608V746Q755 856 721 918T623 1005T457 1030Q391 1030
316 1018T166 979V1047Q227 1070 305 1083T457 1096Q578 1096 658 1063ZM518 50T604 91T755 220V542L465 508Q316 491 249 434T182 273Q182 163 243 107T425 50Q518 50 604 91ZM258 1360T241 1377T223 1422Q223 1450 240 1468T285 1486Q312 1486 329 1468T347 1422Q347
1394 330 1377T285 1360Q258 1360 241 1377ZM658 1360T641 1377T623 1422Q623 1450 640 1468T685 1486Q712 1486 729 1468T747 1422Q747 1394 730 1377T685 1360Q658 1360 641 1377Z" />
<glyph unicode="&#xe5;" glyph-name="aring" horiz-adv-x="979" d="M578 1096T658 1063T780 953T823 746V0H763L757 128H749Q693 60 607 22T422 -16Q276 -16 192 58T108 267Q108 403 194 477T467 574L755 608V746Q755 856 721 918T623 1005T457 1030Q391 1030
316 1018T166 979V1047Q227 1070 305 1083T457 1096Q578 1096 658 1063ZM518 50T604 91T755 220V542L465 508Q316 491 249 434T182 273Q182 163 243 107T425 50Q518 50 604 91ZM433 1260T391 1284T325 1350T301 1444Q301 1496 325 1538T391 1604T485 1628Q537 1628
579 1604T645 1538T669 1444Q669 1392 645 1350T579 1284T485 1260Q433 1260 391 1284ZM543 1312T579 1347T615 1444Q615 1505 579 1540T485 1576Q427 1576 391 1541T355 1444Q355 1383 391 1348T485 1312Q543 1312 579 1347Z" />
<glyph unicode="&#xe6;" glyph-name="ae" horiz-adv-x="1619" d="M1528 510H823Q828 265 926 157T1215 48Q1328 48 1478 97V29Q1341 -18 1211 -18Q1069 -18 971 34T819 197Q733 80 634 32T424 -16Q329 -16 258 17T147 113T108 266Q108 410 202 493T500 576H755V749Q755
858 721 919T623 1005T457 1030Q391 1030 316 1018T166 979V1047Q227 1070 305 1083T457 1096Q608 1096 695 1042T807 862Q894 1097 1144 1097Q1528 1097 1528 542V510ZM994 1031T911 924T823 576H1457Q1452 820 1373 925T1144 1031Q994 1031 911 924ZM531 50T626
102T790 271Q758 372 755 510H495Q330 510 256 447T182 272Q182 163 244 107T427 50Q531 50 626 102Z" />
<glyph unicode="&#xe7;" glyph-name="ccedilla" horiz-adv-x="826" d="M446 1030T358 983T225 829T180 544Q180 363 221 254T342 97T545 48Q656 48 793 97V29Q665 -18 538 -18H527V-114Q600 -119 639 -156T678 -257Q678 -324 632 -362T502 -400Q459 -400 415 -390T339
-363V-307Q417 -348 505 -348Q623 -348 623 -257Q623 -164 503 -164H471V-15Q292 5 200 139T108 540Q108 832 227 964T583 1096Q697 1096 793 1067V999Q687 1030 585 1030Q446 1030 358 983Z" />
<glyph unicode="&#xe8;" glyph-name="egrave" horiz-adv-x="984" d="M893 510H180Q185 264 284 156T576 48Q690 48 843 97V29Q703 -18 572 -18Q344 -18 226 115T108 540Q108 824 214 960T507 1096Q893 1096 893 540V510ZM354 1030T269 923T180 576H822Q818 817
738 923T507 1030Q354 1030 269 923ZM476 1264L254 1616H332L540 1264H476Z" />
<glyph unicode="&#xe9;" glyph-name="eacute" horiz-adv-x="984" d="M893 510H180Q185 264 284 156T576 48Q690 48 843 97V29Q703 -18 572 -18Q344 -18 226 115T108 540Q108 824 214 960T507 1096Q893 1096 893 540V510ZM354 1030T269 923T180 576H822Q818 817
738 923T507 1030Q354 1030 269 923ZM476 1264L684 1616H762L540 1264H476Z" />
<glyph unicode="&#xea;" glyph-name="ecircumflex" horiz-adv-x="984" d="M893 510H180Q185 264 284 156T576 48Q690 48 843 97V29Q703 -18 572 -18Q344 -18 226 115T108 540Q108 824 214 960T507 1096Q893 1096 893 540V510ZM354 1030T269 923T180 576H822Q818
817 738 923T507 1030Q354 1030 269 923ZM764 1264H693L508 1570L323 1264H252L470 1616H546L764 1264Z" />
<glyph unicode="&#xeb;" glyph-name="edieresis" horiz-adv-x="984" d="M893 510H180Q185 264 284 156T576 48Q690 48 843 97V29Q703 -18 572 -18Q344 -18 226 115T108 540Q108 824 214 960T507 1096Q893 1096 893 540V510ZM354 1030T269 923T180 576H822Q818
817 738 923T507 1030Q354 1030 269 923ZM281 1360T264 1377T246 1422Q246 1450 263 1468T308 1486Q335 1486 352 1468T370 1422Q370 1394 353 1377T308 1360Q281 1360 264 1377ZM681 1360T664 1377T646 1422Q646 1450 663 1468T708 1486Q735 1486 752 1468T770
1422Q770 1394 753 1377T708 1360Q681 1360 664 1377Z" />
<glyph unicode="&#xec;" glyph-name="igrave" horiz-adv-x="408" d="M170 0V1080H238V0H170ZM172 1264L-50 1616H28L236 1264H172Z" />
<glyph unicode="&#xed;" glyph-name="iacute" horiz-adv-x="408" d="M170 0V1080H238V0H170ZM172 1264L380 1616H458L236 1264H172Z" />
<glyph unicode="&#xee;" glyph-name="icircumflex" horiz-adv-x="408" d="M170 0V1080H238V0H170ZM460 1264H389L204 1570L19 1264H-52L166 1616H242L460 1264Z" />
<glyph unicode="&#xef;" glyph-name="idieresis" horiz-adv-x="408" d="M170 0V1080H238V0H170ZM-23 1360T-40 1377T-58 1422Q-58 1450 -41 1468T4 1486Q31 1486 48 1468T66 1422Q66 1394 49 1377T4 1360Q-23 1360 -40 1377ZM377 1360T360 1377T342 1422Q342 1450
359 1468T404 1486Q431 1486 448 1468T466 1422Q466 1394 449 1377T404 1360Q377 1360 360 1377Z" />
<glyph unicode="&#xf0;" glyph-name="eth" horiz-adv-x="1058" d="M819 1161T883 963T948 570Q948 272 838 127T531 -18Q331 -18 220 116T108 540Q108 826 219 961T529 1096Q615 1096 684 1069T808 979Q744 1167 639 1316L214 1248L205 1306L599 1370Q490 1507
344 1616H439Q564 1525 670 1381L918 1421L927 1363L708 1328Q819 1161 883 963ZM695 48T786 166T878 537Q878 802 788 916T529 1030Q360 1030 270 917T180 543Q180 277 270 163T531 48Q695 48 786 166Z" />
<glyph unicode="&#xf1;" glyph-name="ntilde" horiz-adv-x="1087" d="M170 1080H230L236 951H244Q314 1021 405 1058T596 1096Q931 1096 931 738V0H863V738Q863 894 794 962T594 1030Q499 1030 402 988T238 853V0H170V1080ZM649 1380T616 1390T536 1421Q496 1439
470 1447T417 1456Q372 1456 337 1439T268 1385V1452Q323 1513 417 1513Q453 1513 486 1503T566 1472Q606 1454 632 1446T685 1437Q730 1437 765 1454T834 1508V1441Q779 1380 685 1380Q649 1380 616 1390Z" />
<glyph unicode="&#xf2;" glyph-name="ograve" horiz-adv-x="1058" d="M330 -18T219 116T108 540Q108 826 219 961T529 1096Q728 1096 839 963T950 540Q950 253 839 118T529 -18Q330 -18 219 116ZM698 48T788 161T878 537Q878 802 788 916T529 1030Q360 1030 270
917T180 543Q180 277 270 163T529 48Q698 48 788 161ZM497 1264L275 1616H353L561 1264H497Z" />
<glyph unicode="&#xf3;" glyph-name="oacute" horiz-adv-x="1058" d="M330 -18T219 116T108 540Q108 826 219 961T529 1096Q728 1096 839 963T950 540Q950 253 839 118T529 -18Q330 -18 219 116ZM698 48T788 161T878 537Q878 802 788 916T529 1030Q360 1030 270
917T180 543Q180 277 270 163T529 48Q698 48 788 161ZM497 1264L705 1616H783L561 1264H497Z" />
<glyph unicode="&#xf4;" glyph-name="ocircumflex" horiz-adv-x="1058" d="M330 -18T219 116T108 540Q108 826 219 961T529 1096Q728 1096 839 963T950 540Q950 253 839 118T529 -18Q330 -18 219 116ZM698 48T788 161T878 537Q878 802 788 916T529 1030Q360 1030
270 917T180 543Q180 277 270 163T529 48Q698 48 788 161ZM785 1264H714L529 1570L344 1264H273L491 1616H567L785 1264Z" />
<glyph unicode="&#xf5;" glyph-name="otilde" horiz-adv-x="1058" d="M330 -18T219 116T108 540Q108 826 219 961T529 1096Q728 1096 839 963T950 540Q950 253 839 118T529 -18Q330 -18 219 116ZM698 48T788 161T878 537Q878 802 788 916T529 1030Q360 1030 270
917T180 543Q180 277 270 163T529 48Q698 48 788 161ZM627 1380T594 1390T514 1421Q474 1439 448 1447T395 1456Q350 1456 315 1439T246 1385V1452Q301 1513 395 1513Q431 1513 464 1503T544 1472Q584 1454 610 1446T663 1437Q708 1437 743 1454T812 1508V1441Q757
1380 663 1380Q627 1380 594 1390Z" />
<glyph unicode="&#xf6;" glyph-name="odieresis" horiz-adv-x="1058" d="M330 -18T219 116T108 540Q108 826 219 961T529 1096Q728 1096 839 963T950 540Q950 253 839 118T529 -18Q330 -18 219 116ZM698 48T788 161T878 537Q878 802 788 916T529 1030Q360 1030
270 917T180 543Q180 277 270 163T529 48Q698 48 788 161ZM302 1360T285 1377T267 1422Q267 1450 284 1468T329 1486Q356 1486 373 1468T391 1422Q391 1394 374 1377T329 1360Q302 1360 285 1377ZM702 1360T685 1377T667 1422Q667 1450 684 1468T729 1486Q756 1486
773 1468T791 1422Q791 1394 774 1377T729 1360Q702 1360 685 1377Z" />
<glyph unicode="&#xf7;" glyph-name="divide" horiz-adv-x="1062" d="M504 1026T487 1043T469 1088Q469 1116 486 1134T531 1152Q558 1152 575 1134T593 1088Q593 1060 576 1043T531 1026Q504 1026 487 1043ZM167 728V792H895V728H167ZM504 368T487 385T469 430Q469
458 486 476T531 494Q558 494 575 476T593 430Q593 402 576 385T531 368Q504 368 487 385Z" />
<glyph unicode="&#xf8;" glyph-name="oslash" horiz-adv-x="1058" d="M950 804T950 540Q950 253 839 118T529 -18Q350 -18 246 86L174 -16L123 20L205 136Q108 277 108 540Q108 826 219 961T529 1096Q708 1096 812 993L884 1096L935 1060L853 943Q950 804 950
540ZM360 1030T270 917T180 543Q180 318 248 197L771 936Q687 1030 529 1030Q360 1030 270 917ZM698 48T788 161T878 537Q878 762 810 883L286 143Q370 48 529 48Q698 48 788 161Z" />
<glyph unicode="&#xf9;" glyph-name="ugrave" horiz-adv-x="1077" d="M331 -18T244 66T156 339V1080H224V338Q224 183 293 116T488 48Q583 48 678 91T839 225V1080H907V0H847L841 124H833Q764 54 674 18T486 -18Q331 -18 244 66ZM500 1264L278 1616H356L564 1264H500Z" />
<glyph unicode="&#xfa;" glyph-name="uacute" horiz-adv-x="1077" d="M331 -18T244 66T156 339V1080H224V338Q224 183 293 116T488 48Q583 48 678 91T839 225V1080H907V0H847L841 124H833Q764 54 674 18T486 -18Q331 -18 244 66ZM500 1264L708 1616H786L564 1264H500Z" />
<glyph unicode="&#xfb;" glyph-name="ucircumflex" horiz-adv-x="1077" d="M331 -18T244 66T156 339V1080H224V338Q224 183 293 116T488 48Q583 48 678 91T839 225V1080H907V0H847L841 124H833Q764 54 674 18T486 -18Q331 -18 244 66ZM788 1264H717L532 1570L347
1264H276L494 1616H570L788 1264Z" />
<glyph unicode="&#xfc;" glyph-name="udieresis" horiz-adv-x="1077" d="M331 -18T244 66T156 339V1080H224V338Q224 183 293 116T488 48Q583 48 678 91T839 225V1080H907V0H847L841 124H833Q764 54 674 18T486 -18Q331 -18 244 66ZM305 1360T288 1377T270 1422Q270
1450 287 1468T332 1486Q359 1486 376 1468T394 1422Q394 1394 377 1377T332 1360Q305 1360 288 1377ZM705 1360T688 1377T670 1422Q670 1450 687 1468T732 1486Q759 1486 776 1468T794 1422Q794 1394 777 1377T732 1360Q705 1360 688 1377Z" />
<glyph unicode="&#xfd;" glyph-name="yacute" horiz-adv-x="995" d="M897 1080H970L371 -440H299L473 0H451L25 1080H101L499 58L897 1080ZM467 1264L675 1616H753L531 1264H467Z" />
<glyph unicode="&#xfe;" glyph-name="thorn" horiz-adv-x="1071" d="M170 1616H238V963H244Q298 1024 377 1060T555 1096Q739 1096 851 970T963 560Q963 266 833 124T444 -18Q351 -18 238 -1V-440H170V1616ZM671 48T781 168T891 552Q891 814 800 922T550 1030Q457
1030 374 989T238 864V71Q280 60 336 54T447 48Q671 48 781 168Z" />
<glyph unicode="&#xff;" glyph-name="ydieresis" horiz-adv-x="995" d="M897 1080H970L371 -440H299L473 0H451L25 1080H101L499 58L897 1080ZM272 1360T255 1377T237 1422Q237 1450 254 1468T299 1486Q326 1486 343 1468T361 1422Q361 1394 344 1377T299 1360Q272
1360 255 1377ZM672 1360T655 1377T637 1422Q637 1450 654 1468T699 1486Q726 1486 743 1468T761 1422Q761 1394 744 1377T699 1360Q672 1360 655 1377Z" />
<glyph unicode="&#x2013;" glyph-name="endash" horiz-adv-x="900" d="M0 528V592H900V528H0Z" />
<glyph unicode="&#x2014;" glyph-name="emdash" horiz-adv-x="1800" d="M0 528V592H1800V528H0Z" />
<glyph unicode="&#x2018;" glyph-name="quoteleft" horiz-adv-x="406" d="M230 1326T247 1308T265 1262Q265 1235 249 1218T205 1200Q175 1200 158 1220T141 1284Q141 1448 209 1616H253Q226 1529 212 1461T195 1326H203Q230 1326 247 1308Z" />
<glyph unicode="&#x2019;" glyph-name="quoteright" horiz-adv-x="406" d="M231 1626T248 1606T265 1542Q265 1378 197 1210H153Q180 1297 194 1365T211 1500H203Q176 1500 159 1518T141 1564Q141 1591 157 1608T201 1626Q231 1626 248 1606Z" />
<glyph unicode="&#x201a;" glyph-name="quotesinglbase" horiz-adv-x="406" d="M231 116T248 96T265 32Q265 -132 197 -300H153Q180 -213 194 -145T211 -10H203Q176 -10 159 8T141 54Q141 81 157 98T201 116Q231 116 248 96Z" />
<glyph unicode="&#x201c;" glyph-name="quotedblleft" horiz-adv-x="686" d="M230 1326T247 1308T265 1262Q265 1235 249 1218T205 1200Q175 1200 158 1220T141 1284Q141 1448 209 1616H253Q226 1529 212 1461T195 1326H203Q230 1326 247 1308ZM510 1326T527 1308T545
1262Q545 1235 529 1218T485 1200Q455 1200 438 1220T421 1284Q421 1448 489 1616H533Q506 1529 492 1461T475 1326H483Q510 1326 527 1308Z" />
<glyph unicode="&#x201d;" glyph-name="quotedblright" horiz-adv-x="686" d="M231 1626T248 1606T265 1542Q265 1378 197 1210H153Q180 1297 194 1365T211 1500H203Q176 1500 159 1518T141 1564Q141 1591 157 1608T201 1626Q231 1626 248 1606ZM511 1626T528
1606T545 1542Q545 1378 477 1210H433Q460 1297 474 1365T491 1500H483Q456 1500 439 1518T421 1564Q421 1591 437 1608T481 1626Q511 1626 528 1606Z" />
<glyph unicode="&#x201e;" glyph-name="quotedblbase" horiz-adv-x="686" d="M231 116T248 96T265 32Q265 -132 197 -300H153Q180 -213 194 -145T211 -10H203Q176 -10 159 8T141 54Q141 81 157 98T201 116Q231 116 248 96ZM511 116T528 96T545 32Q545 -132 477
-300H433Q460 -213 474 -145T491 -10H483Q456 -10 439 8T421 54Q421 81 437 98T481 116Q511 116 528 96Z" />
<glyph unicode="&#x2022;" glyph-name="bullet" horiz-adv-x="682" d="M286 360T240 386T168 457T141 560Q141 617 167 662T240 734T341 760Q396 760 442 734T514 663T541 560Q541 503 515 458T442 386T341 360Q286 360 240 386Z" />
<glyph unicode="&#x2039;" glyph-name="guilsinglleft" horiz-adv-x="546" d="M384 140L128 560L384 980H458L202 560L458 140H384Z" />
<glyph unicode="&#x203a;" glyph-name="guilsinglright" horiz-adv-x="546" d="M88 140L344 560L88 980H162L418 560L162 140H88Z" />
</font>
</defs>
</svg>
